<?xml version="1.0" standalone="no"?>
<!DOCTYPE svg PUBLIC "-//W3C//DTD SVG 1.1//EN" "http://www.w3.org/Graphics/SVG/1.1/DTD/svg11.dtd">
<svg xmlns="http://www.w3.org/2000/svg">
<defs >
<font id="PlaypenSans" horiz-adv-x="623" ><font-face
    font-family="Playpen Sans ExtraBold"
    units-per-em="1000"
    panose-1="0 0 0 0 0 0 0 0 0 0"
    ascent="1170"
    descent="-340"
    alphabetic="0" />
<glyph unicode=" " horiz-adv-x="320" />
<glyph unicode="!" horiz-adv-x="291" d="M142 239Q99 239 80 259T63 320Q64 326 65 351T67 412T70 491T74 577T77 657T79 718Q80 749 99 763T158 778Q198 778 217 764T234 718Q232 663 230 623T227 551T224 484T222 406T220 299Q219 268 200 254T142 239ZM137
-18Q94 -18 66 11T37 84Q37 125 67 151T140 177Q183 177 210 150T238 78Q238 36 211 9T137 -18Z" />
<glyph unicode="&quot;" horiz-adv-x="471" d="M63 741Q65 761 81 780T144 800Q189 800 207 781T224 741Q222 720 217 685T207 616T199 561Q196 536 184 519T138 502Q92 502 78 519T63 561Q62 598 61 648T63 741ZM271 741Q273 761 289 780T352 800Q397 800 415
781T432 741Q430 720 425 685T415 616T407 561Q404 536 392 519T346 502Q300 502 286 519T271 561Q270 598 269 648T271 741Z" />
<glyph unicode="#" horiz-adv-x="616" d="M164 635Q167 652 184 661T226 671Q267 671 288 653T304 605Q279 459 256 322T208 39Q205 23 188 13T146 3Q106 3 85 21T68 69Q94 215 117 352T164 635ZM410 667Q415 684 432 693T473 703Q514 703 535 685T549 635Q516
492 488 356T425 77Q421 61 405 52T364 43Q322 43 302 61T288 110Q322 255 350 390T410 667ZM66 416Q43 417 29 436T15 486Q15 518 29 536T68 554L563 533Q586 532 600 513T614 464Q614 432 600 414T561 396L66 416ZM64 132Q36 131 20 149T3 198Q3 223 13 244T49
267L521 282Q550 283 565 265T581 214Q581 201 577 186T564 158T535 145Q457 143 379 141T222 137T64 132Z" />
<glyph unicode="$" horiz-adv-x="654" d="M564 697Q618 662 616 625Q615 596 602 576T572 546T543 536Q527 536 509 546T472 569Q452 583 415 600T322 618Q286 618 264 612T233 595T223 568Q223 555 229 543T260 519T335 488Q447 450 509 414T597 336T623 242Q623
182 589 133T489 54T326 24Q280 24 237 33T156 58T90 91Q63 108 42 126T21 167Q21 189 34 211T66 249T97 265Q117 265 133 254T169 233Q190 223 218 211T275 191T326 183Q383 183 412 192T442 231Q442 245 435 257T400 283T309 318Q210 351 152 385T68 459T42 549Q42
609 73 661T167 745T326 777Q372 777 419 763T505 730T564 697ZM309 792Q310 816 312 831T324 854T359 862Q394 862 405 845T415 792Q413 728 407 649T392 483T375 311T359 145T349 1Q348 -33 340 -50T297 -68Q259 -68 251 -51T243 1Q246 66 253 145T268 310T285
483T300 648T309 792Z" />
<glyph unicode="%" horiz-adv-x="876" d="M683 -14Q639 -14 606 2T552 46T519 109T508 184Q508 242 530 288T599 364Q608 370 614 373T632 376Q643 376 656 368T669 337Q669 314 664 300T653 280Q642 268 635 254T626 223T623 187Q623 169 626 152T635 122T654
100T684 92Q708 92 723 105T745 140T753 188Q753 208 750 227T739 261T716 285T675 294Q669 294 662 293T646 290Q629 286 619 309T608 358Q608 382 635 392Q645 396 656 397T675 399Q726 399 762 382T822 335T856 267T868 187Q869 150 858 114T824 49T765 3T683
-14ZM198 377Q135 377 95 402T36 473T16 576Q16 612 25 650T56 720T112 772T197 792Q258 792 299 766T361 697T385 602Q386 559 375 519T339 446T280 396T198 377ZM128 575Q128 538 141 510T192 482Q222 482 239 499T264 542T272 596Q272 623 263 643T238 675T198
687Q163 687 146 658T128 575ZM627 817Q646 847 669 853T719 839Q742 825 744 804T727 754Q700 712 670 662T606 555T536 433T460 296T377 144T287 -23Q271 -53 248 -60T196 -51Q172 -39 169 -18T183 33Q241 138 291 229T386 398T467 542T534 659T587 751T627 817Z"
/>
<glyph unicode="&amp;" horiz-adv-x="834" d="M772 151Q798 140 805 124T813 90Q813 59 797 33T755 -6T704 -7Q611 34 537 79T406 167T312 244T255 298Q214 340 185 376T138 444T111 509T102 577Q102 626 135 672T229 749T369 780Q428 780 475 753T549 686T577
605Q577 558 553 515T486 430T386 344Q346 313 309 282T249 223T226 172Q226 150 245 138T295 125Q324 125 349 133T402 163T465 224Q503 267 534 310T603 400Q609 408 618 410T635 412Q657 412 679 399T718 365T734 325Q734 318 732 310T722 290Q716 280 708 269T691
246T670 220Q654 198 635 176T595 132Q567 102 538 75T472 27T388 -6T274 -18Q232 -18 190 -10T113 17T57 67T36 143Q36 188 59 232T119 318T200 398T287 467Q341 507 366 528T398 563T406 598Q406 611 399 621T378 639T343 646Q327 646 311 636T285 608T274 568Q274
540 299 503T375 416Q395 397 442 357T557 270Q591 247 624 227T693 188T772 151Z" />
<glyph unicode="&apos;" horiz-adv-x="263" d="M63 741Q65 761 81 780T144 800Q189 800 207 781T224 741Q222 720 217 685T207 616T199 561Q196 536 184 519T138 502Q92 502 78 519T63 561Q62 598 61 648T63 741Z" />
<glyph unicode="(" horiz-adv-x="379" d="M212 852Q223 871 235 880T269 889Q299 889 326 870T353 821Q353 811 348 800T338 780Q273 672 245 550T217 312Q217 194 238 105T298 -63Q305 -77 307 -89T310 -111Q310 -130 297 -145T263 -170T224 -180Q203 -180 191
-171T167 -141Q137 -76 114 -10T77 132T63 297Q63 464 102 600T212 852Z" />
<glyph unicode=")" horiz-adv-x="372" d="M76 779Q72 788 69 799T66 816Q66 837 79 851T110 873T146 881Q166 881 180 871T208 834Q229 797 246 748T277 642T298 524T306 400Q306 307 295 217T260 44T199 -111Q180 -148 166 -165T121 -183Q102 -183 84 -173T54
-146T42 -116Q42 -107 46 -94T58 -65Q90 -4 110 72T140 231T150 396Q150 447 142 513T118 648T76 779Z" />
<glyph unicode="*" horiz-adv-x="507" d="M206 792Q207 817 228 830T277 843Q304 843 325 830T345 790L337 458Q336 434 315 421T267 407Q240 407 219 421T199 459L206 792ZM400 789Q408 794 416 798T434 803Q460 803 478 781T496 733Q496 715 488 705T465 684Q424
655 367 620T248 547T133 475Q125 469 117 467T99 465Q83 465 69 476T46 504T37 537Q37 565 67 584L400 789ZM93 680Q78 689 71 699T63 725Q63 752 83 776T128 800Q138 800 146 796T163 787L442 613Q457 603 464 593T471 567Q471 540 455 516T412 492Q402 492 391
496T370 507L93 680Z" />
<glyph unicode="+" horiz-adv-x="650" d="M403 131Q402 102 383 87T326 72Q287 72 267 87T247 131Q247 152 247 191T248 277T249 371T250 458T250 518Q249 548 268 562T327 577Q366 577 385 563T405 518Q406 499 406 462T406 378T405 283T404 195T403 131ZM129
249Q103 249 89 267T75 321Q75 358 89 377T129 396Q156 396 201 396T299 396T400 394T484 393T531 392Q555 392 567 374T580 320Q580 284 568 266T531 247Q525 247 492 247T410 247T308 248T207 249T129 249Z" />
<glyph unicode="," horiz-adv-x="248" d="M41 83Q40 137 61 153T116 169Q155 169 178 152T201 83Q201 38 188 -7T154 -91T106 -158Q100 -165 88 -172T58 -179Q44 -179 28 -170T1 -149T-10 -124Q-10 -111 -5 -99T5 -78Q24 -40 33 -6T41 83Z" />
<glyph unicode="-" horiz-adv-x="459" d="M122 242Q91 241 76 260T60 311Q60 355 76 375T122 397Q136 398 166 398T232 399T296 400T335 399Q360 398 375 380T390 332Q390 295 376 269T335 244Q325 245 296 245T232 245T167 244T122 242Z" />
<glyph unicode="." horiz-adv-x="279" d="M130 -20Q85 -20 54 3T23 64Q23 96 36 123T75 166T139 183Q191 183 217 157T243 89Q243 44 210 12T130 -20Z" />
<glyph unicode="/" horiz-adv-x="416" d="M275 795Q290 836 317 846T384 842Q413 832 422 806T415 739Q398 695 375 631T327 491T277 334T227 175T183 27T149 -94Q139 -134 109 -144T48 -147Q18 -139 5 -117T3 -53Q17 -4 37 64T82 211T132 372T184 533T233 679T275 795Z" />
<glyph unicode="0" horiz-adv-x="744" d="M378 -16Q287 -16 222 15T116 101T54 226T34 372Q34 447 54 518T115 648T219 740T369 775Q385 775 412 773T469 767T522 755Q589 712 631 645T695 500T716 346Q716 273 697 208T636 93T531 13T378 -16ZM211 380Q211 335
220 293T249 216T300 162T376 141Q421 141 455 165T508 236T527 350Q527 404 517 455T485 548T424 609Q411 613 398 615T370 617Q329 617 301 600T255 555T228 495T215 433T211 380Z" />
<glyph unicode="1" horiz-adv-x="486" d="M136 435Q126 430 116 427T92 424Q72 424 58 444T36 490T29 536Q29 558 39 568T60 584Q107 608 150 634T233 690T304 753Q316 766 326 770T357 775Q385 775 411 769T454 750T471 713Q471 698 466 685T456 655Q436 582
421 513T399 368T391 198Q391 145 392 111T396 45Q397 34 391 21T364 -2T302 -11Q261 -11 241 2T215 37T209 83Q209 167 211 239T221 378T240 511T272 649L319 563Q274 518 233 491T136 435Z" />
<glyph unicode="2" horiz-adv-x="699" d="M45 545Q49 586 71 626T130 698T219 750T332 769Q388 769 439 752T529 704T591 627T614 524Q614 464 593 414T538 323T466 246T391 181Q433 181 464 180T521 176T567 169T608 159Q648 149 666 127T674 61Q664 14 637 -1T572
-9Q526 1 469 11T341 23Q322 24 299 24T256 23T222 19Q208 7 186 -4T133 -15Q111 -15 93 -2T65 38Q54 73 62 98T99 142Q158 180 216 222T321 310T397 403T426 499Q426 542 415 568T380 608T320 621Q291 621 269 610T231 578T207 530Q203 514 187 501T125 488Q84
488 65 503T45 545Z" />
<glyph unicode="3" horiz-adv-x="653" d="M128 531Q118 531 98 539T60 567T42 624Q42 644 56 661T87 693Q143 743 196 760T305 777Q366 777 413 759T494 709T544 638T561 557Q561 503 534 462T467 398Q524 379 558 350T606 285T621 207Q621 148 589 98T490 17T325
-14Q282 -14 236 -6T145 21T65 76Q55 86 49 97T42 126Q42 146 55 168T89 206T130 222Q167 222 204 179Q214 168 228 158T263 142T314 135Q346 135 369 147T406 181T420 226Q420 267 395 288T343 319Q322 309 299 305T254 300T216 302Q195 306 177 319T159 360Q159
391 179 407T222 431Q254 442 279 444T333 444Q359 461 371 486T384 536Q384 557 377 574T358 604T329 622T294 629Q257 629 227 610T171 557Q164 547 152 539T128 531Z" />
<glyph unicode="4" horiz-adv-x="687" d="M604 170Q597 170 563 171T478 173T369 177T255 180T153 184T83 187Q43 189 29 205T14 246Q14 267 21 288T38 327T50 352Q58 370 73 402T106 476T144 563T182 653T214 735Q224 761 239 773T292 785Q335 785 363 765T391
718Q391 708 390 700T384 681Q364 629 349 591T321 522T293 459T263 391T225 303L123 344Q223 340 350 337T614 329Q652 328 664 314T677 260Q677 219 665 200T636 175T604 170ZM469 -18Q423 -18 401 -6T378 41Q379 117 382 202T390 373T403 536Q406 561 421 575T457
595T498 602Q543 602 567 587T587 528Q582 479 578 435T571 346T566 256T562 156T559 41Q559 13 541 -2T469 -18Z" />
<glyph unicode="5" horiz-adv-x="638" d="M137 723Q139 737 151 744T176 752Q233 757 262 741T289 714Q288 705 282 671T268 590T251 494T232 405L132 387Q188 442 242 463T350 485Q420 485 472 454T554 368T584 246Q584 173 548 113T449 18T305 -18Q265 -18 221
-11T138 11T69 46Q60 52 55 63T49 85Q49 103 59 126T83 166T110 183Q118 183 127 180T144 173Q168 161 191 152T239 137T295 131Q334 131 356 148T387 190T397 242Q397 268 386 289T352 324T297 337Q251 337 217 322T136 268Q125 260 114 260Q102 260 88 265T67
285T66 330Q83 408 95 471T117 595T137 723ZM91 690Q91 719 101 735T126 757T150 762Q180 761 223 761T317 762T417 765T509 772Q529 774 545 758T562 695Q562 642 544 626T493 606Q455 602 399 599T281 594T161 594Q150 595 133 601T104 627T91 690Z" />
<glyph unicode="6" horiz-adv-x="705" d="M487 788Q495 791 511 795T546 800Q576 800 598 780T621 707Q621 679 607 668T577 650Q523 629 470 599T373 527T303 427T277 292Q277 269 283 244T301 196T334 160T381 146Q417 146 442 161T480 202T494 261Q494 289
482 310T446 344T390 356Q346 356 303 342T221 299T147 229Q142 222 132 210T110 189T83 179Q58 179 39 204T20 270Q20 292 34 310T67 344T100 369Q141 398 194 427T307 475T421 495Q487 495 535 473T613 415T659 336T674 251Q674 201 653 154T593 70T501 12T381
-10Q321 -10 270 14T181 80T122 174T100 283Q100 369 129 446T210 588T332 704T487 788Z" />
<glyph unicode="7" horiz-adv-x="576" d="M89 566Q55 567 40 587T24 662Q24 709 42 728T86 748Q150 748 222 751T367 760T507 775Q537 779 553 771T576 749T582 722Q582 710 580 697T568 667Q501 547 448 440T350 230T266 22Q256 -7 228 -17T167 -27Q130 -27 112
-17T87 8T80 33Q80 39 82 49T86 65Q129 181 176 284T280 493T409 720L453 593Q385 582 327 576T211 568T89 566Z" />
<glyph unicode="8" horiz-adv-x="626" d="M37 175Q37 225 56 267T106 343T174 402Q112 439 83 484T53 576Q53 641 85 686T175 755T305 779Q390 779 447 758T534 698T563 609Q563 550 528 502T425 409Q473 379 509 349T567 282T588 198Q588 153 567 115T508 47T419
1T308 -15Q213 -15 153 10T65 79T37 175ZM227 191Q227 169 239 155T272 134T312 127Q340 127 359 136T388 160T398 191Q398 214 385 235T351 275T305 312Q275 286 258 265T234 226T227 191ZM305 490Q339 517 359 541T379 594Q379 607 370 618T344 638T301 646Q280
646 263 639T237 620T227 589Q227 556 248 533T305 490Z" />
<glyph unicode="9" horiz-adv-x="600" d="M476 518L480 377Q454 351 423 330T356 297T286 284Q203 284 146 316T59 401T29 512Q29 587 61 645T153 738T297 772Q362 772 412 749T496 685T549 595T567 490Q567 420 547 351T492 220T409 108T308 26T195 -17Q150 -24
118 5T85 83Q85 106 95 118T120 135Q178 153 227 184T312 258T369 358T389 482Q389 515 383 542T363 587T331 616T287 626Q265 626 248 615T220 584T210 541Q210 506 220 479T252 438T303 423Q336 423 369 433T431 465T476 518Z" />
<glyph unicode=":" horiz-adv-x="296" d="M162 356Q115 356 80 383T45 462Q45 497 70 526T154 555Q204 555 229 525T255 450Q255 428 242 407T207 371T162 356ZM142 -20Q97 -20 66 6T35 70Q35 118 59 148T141 179Q193 179 224 151T255 89Q255 44 222 12T142 -20Z" />
<glyph unicode=";" horiz-adv-x="296" d="M84 -179Q70 -179 54 -170T27 -149T16 -124Q16 -111 21 -99T31 -78Q50 -40 59 -6T67 83Q66 137 87 153T142 169Q181 169 204 152T227 83Q227 38 214 -7T180 -91T132 -158Q126 -165 114 -172T84 -179ZM146 356Q123 356
100 367T62 399T46 445Q46 477 57 502T92 541T155 555Q205 555 230 531T256 466Q256 421 225 389T146 356Z" />
<glyph unicode="&lt;" horiz-adv-x="650" d="M475 15Q461 15 440 25T396 50Q359 74 316 103T230 162T150 218T88 263Q76 272 70 285T64 317Q64 334 71 350T96 379Q113 393 149 417T233 473T331 537T426 602Q439 612 454 619T486 626Q501 626 517 613T544 580T555
541Q555 520 548 508T527 487Q499 469 466 448T397 404T326 359T259 317Q285 301 315 282T379 243T445 203T509 165Q526 155 535 141T544 103Q544 84 534 64T507 29T475 15Z" />
<glyph unicode="=" horiz-adv-x="650" d="M135 363Q106 365 91 383T76 435Q76 473 91 492T135 510Q167 509 217 507T324 504T433 503T522 504Q550 506 565 487T581 432Q581 398 566 379T522 358Q489 357 438 357T331 357T222 359T135 363ZM131 143Q102 143 87
161T72 215Q72 252 87 271T131 290Q157 290 201 289T296 287T395 285T476 283T518 282Q546 282 561 263T577 210Q577 176 562 157T518 137Q512 137 480 137T401 138T303 140T205 141T131 143Z" />
<glyph unicode="&gt;" horiz-adv-x="650" d="M168 18Q154 18 138 31T110 63T99 101Q99 122 106 135T127 157Q155 175 188 196T257 240T328 285T394 328Q369 345 339 363T275 402T209 442T145 480Q128 491 119 505T110 541Q110 560 120 579T145 612T177 626Q199
626 217 617T258 594Q295 570 338 541T425 483T506 427T569 383Q582 373 588 360T594 327Q594 310 586 295T560 266Q542 252 505 227T421 171T323 107T228 42Q215 32 200 25T168 18Z" />
<glyph unicode="?" horiz-adv-x="519" d="M216 223Q185 223 166 238T148 293L151 351Q153 383 168 404T225 425Q259 425 286 437T329 475T345 545Q345 579 332 601T298 634T251 645Q214 645 191 635T149 608Q139 598 129 595T110 592Q88 592 66 609T43 656Q43
667 46 676T59 698Q89 739 145 761T268 783Q336 783 389 756T473 678T504 560Q504 496 475 440T398 349T290 310L289 283Q288 249 267 236T216 223ZM209 -16Q169 -16 139 11T109 78Q111 116 135 146T202 177Q222 177 247 168T291 138T310 81Q310 45 294 24T254
-7T209 -16Z" />
<glyph unicode="@" horiz-adv-x="878" d="M362 -230Q285 -230 222 -204T114 -132T44 -24T19 107Q19 194 43 273T113 419T218 535T351 612T504 640Q599 640 665 610T774 531T835 422T855 305Q855 208 821 132T728 12T592 -32Q549 -32 518 -13T474 35Q454 5 426
-13T372 -32Q332 -32 305 -15T263 30T240 86T233 138Q233 195 255 244T317 329T407 385T517 406Q540 406 568 402T621 386Q643 377 655 358T668 314Q668 289 657 277T626 265Q610 265 597 271T570 282T532 288Q479 288 444 266T392 212T373 149Q372 131 377 116T392
91Q412 111 428 129T455 163Q456 181 458 198T464 231T473 261T487 287Q501 307 516 321T551 335Q585 335 606 316T617 264Q613 250 606 234T591 200T573 163Q572 137 575 122T586 101T608 94Q629 94 648 108T681 148T704 212T713 295Q713 342 698 381T653 448T585
491T498 506Q428 506 368 475T264 389T196 263T171 113Q171 70 183 32T220 -36T283 -82T376 -96Q404 -95 419 -113T435 -165Q435 -196 416 -213T362 -230Z" />
<glyph unicode="A" horiz-adv-x="793" d="M198 49Q187 15 161 0T77 -15Q31 -15 14 2T-3 38Q-3 60 4 82T19 124Q53 211 86 290T152 442T216 581T279 707Q301 750 330 769T400 789Q450 789 484 770T531 719Q534 712 547 672T580 571T623 440T672 301T720 176T760
89Q766 79 770 65T775 43Q775 21 749 1T676 -19Q644 -19 620 -12T581 24Q551 81 527 155T481 309T440 462T398 591Q349 487 313 390T249 206T198 49ZM216 179Q201 178 186 204T171 262Q171 289 186 305T223 330T264 344Q290 350 321 353T390 356T468 348Q474 347
499 349T558 354T619 360T658 364Q688 367 707 351T726 301Q726 269 703 248T645 213T573 195T509 189Q452 189 407 189T317 188T216 179Z" />
<glyph unicode="B" horiz-adv-x="693" d="M76 716Q78 745 99 760T172 777Q193 778 214 773T250 758T265 735Q258 563 259 386T249 32Q248 13 220 0T162 -13Q109 -13 85 -2T61 39Q68 144 69 258T70 489T76 716ZM198 630V757Q218 763 256 770T354 778Q395 778 440
771T526 744T592 692T617 606Q617 556 585 506T470 423Q536 408 576 381T634 319T652 245Q652 187 619 141T531 64T412 16T286 -1Q246 -1 208 2T152 10L163 154Q186 150 214 149T263 147Q306 147 341 153T403 173T443 207T458 254Q458 274 448 290T419 317T377
334T325 341Q296 337 274 335T232 332Q192 332 171 346T149 413Q149 424 151 441T159 473T175 487Q192 486 207 485T241 483Q278 483 313 489T375 509T419 542T435 589Q435 607 424 619T392 638T337 644Q316 644 289 642T236 636T198 630Z" />
<glyph unicode="C" horiz-adv-x="746" d="M676 703Q682 699 694 686T707 652Q707 626 694 604T662 567T632 553Q619 553 607 559T587 570Q556 589 530 600T480 617T430 623Q374 623 329 597T257 515T231 376Q231 310 249 258T306 176T408 146Q445 146 474 154T530
179T585 221Q594 229 602 234T621 240Q637 240 658 227T695 193T712 148Q712 129 701 112T673 77Q621 26 546 2T397 -22Q291 -22 211 24T85 157T39 367Q39 462 68 538T150 668T274 751T430 780Q469 780 512 773T597 749T676 703Z" />
<glyph unicode="D" horiz-adv-x="796" d="M52 35Q56 129 63 232T77 440Q82 506 85 571T89 694Q90 715 100 729T137 750Q153 753 180 756T239 761T299 765T347 766Q449 766 525 737T652 656T729 537T755 394Q755 317 726 243T642 108T509 11T333 -25Q297 -25 267
-19T210 -3Q192 -10 174 -14T129 -19Q97 -19 74 -8T52 35ZM239 149Q248 146 257 144T277 141T300 138T327 137Q362 137 402 152T477 198T534 278T556 396Q556 456 538 497T490 562T428 598T364 609Q346 609 329 608T297 604T266 598Q264 537 262 493T258 411T252
336T246 255T239 149Z" />
<glyph unicode="E" horiz-adv-x="622" d="M114 -15Q103 -15 88 -13T61 2T52 40Q60 145 68 257T83 483T95 703Q97 735 109 749T155 766Q201 770 264 772T396 775T529 777Q561 777 576 763T592 714Q592 656 578 638T534 619Q488 619 456 619T396 617T342 614T279
609Q277 577 276 556T273 515T269 463Q313 469 350 472T420 476T485 475Q502 475 518 460T534 406Q534 352 517 335T484 317Q459 319 427 319T354 315T261 304Q257 259 255 223T248 147Q283 149 317 152T386 157T453 162T519 164Q544 164 558 149T570 93Q568 42
555 24T522 6Q502 6 482 6T441 5Q394 4 336 1T219 -6T114 -15Z" />
<glyph unicode="F" horiz-adv-x="588" d="M64 48Q68 89 70 146T72 265T73 383Q73 422 73 448T75 498T79 547T86 611Q77 625 71 643T65 690Q65 722 81 740T117 758Q156 757 211 756T325 753T436 752T523 754Q540 755 554 742T568 687Q568 649 557 630T528 604T494
596Q474 595 455 594T411 593T354 595T276 599Q271 552 268 517T264 446Q295 443 325 442T384 441T441 444Q464 446 479 431T495 383Q496 331 480 315T448 296Q398 293 358 293T264 298Q264 201 263 144T256 52Q252 22 234 7T162 -9Q118 -9 97 -1T69 20T64 48Z"
/>
<glyph unicode="G" horiz-adv-x="818" d="M734 680Q740 675 746 661T752 631Q752 609 739 589T709 556T680 543Q664 543 654 551T634 566Q589 595 551 608T466 621Q414 621 375 603T309 555T264 489T238 416T230 346Q230 309 242 273T277 207T333 159T408 141Q446
141 473 153T521 185T556 228T579 273Q565 273 551 273T520 274T484 274Q456 274 439 291T421 352Q421 387 439 409T489 432Q538 432 597 431T707 430Q742 430 754 409T766 361Q766 293 741 226T667 104T552 15T400 -19Q321 -19 256 10T143 90T69 207T43 348Q43
435 75 512T164 650T299 745T466 780Q534 780 604 758T734 680Z" />
<glyph unicode="H" horiz-adv-x="788" d="M87 718Q89 741 110 761T187 782Q240 782 260 762T277 718Q264 606 261 499T257 282T246 56Q245 41 237 27T209 3T151 -7Q98 -7 76 14T55 60Q63 174 64 280T70 494T87 718ZM159 298Q148 298 139 306T124 340T118 416Q118
439 131 450T160 463Q222 465 270 466T365 469T470 470T610 471Q627 471 639 460T651 426Q651 368 638 343T607 313T573 307Q532 308 480 308T350 306T159 298ZM542 709Q544 733 563 753T639 774Q692 774 713 754T733 709Q732 675 731 646T727 578Q722 439 720
310T717 43Q717 21 696 1T622 -20Q565 -20 546 0T526 43Q526 219 530 379T542 709Z" />
<glyph unicode="I" horiz-adv-x="329" d="M94 714Q96 745 123 758T187 771Q234 771 260 757T284 708Q271 547 262 376T250 41Q249 7 220 -5T149 -17Q110 -17 84 -4T59 51Q62 206 71 377T94 714Z" />
<glyph unicode="J" horiz-adv-x="613" d="M385 730Q392 761 414 771T482 782Q535 782 553 762T568 719Q564 687 558 644T552 550Q552 528 552 506T553 457T554 388Q554 333 549 277T528 168T480 74T395 8T262 -16Q199 -16 149 2T63 54T13 135Q7 155 15 173T41
206T78 229T113 238Q130 238 142 230T164 208Q174 192 186 176T217 150T264 139Q290 139 310 151T344 189T365 251T373 338Q373 393 373 431T372 497T371 551Q371 597 374 646T385 730Z" />
<glyph unicode="K" horiz-adv-x="745" d="M251 44Q250 14 231 -1T159 -17Q99 -17 80 0T61 59Q66 217 70 385T76 714Q76 754 100 767T177 780Q224 780 246 768T268 723Q266 557 262 386T251 44ZM541 746Q560 763 573 769T597 775Q617 775 638 759T674 718T689 673Q689
660 685 649T666 624Q633 594 607 572T554 530T495 485T418 426Q458 387 487 350T545 279T607 213T688 154Q714 139 721 125T729 93Q729 62 713 35T674 -9T636 -26Q620 -26 609 -20Q554 8 507 45T419 128T344 222Q310 272 274 320T193 411L213 456Q275 504 331
554T439 652T541 746Z" />
<glyph unicode="L" horiz-adv-x="586" d="M85 725Q87 753 114 764T180 775Q239 775 258 758T276 707Q270 636 268 574T263 450T256 319T243 165Q291 166 324 167T382 169T432 172T488 173Q520 173 537 158T555 94Q555 37 539 20T492 2Q423 2 368 1T267 -1T180
-4T101 -5Q79 -5 64 10T48 48Q48 71 50 96T56 146T61 192Q71 333 73 470T85 725Z" />
<glyph unicode="M" horiz-adv-x="938" d="M232 50Q228 14 202 2T129 -11Q81 -11 65 6T53 60Q65 166 71 253T80 417T83 564T80 708Q79 740 104 755T182 771Q230 771 248 756T281 712Q307 660 327 620T368 542T412 457T471 347Q512 406 540 449T590 530T636 613T693
717Q707 740 726 754T793 768Q840 768 855 752T872 709Q873 638 873 573T872 440T869 295Q867 228 864 163T856 43Q854 10 833 -2T770 -15Q721 -15 702 -3T685 43L693 178Q695 214 696 241T698 291T699 341T700 403Q667 347 643 311T597 245T547 178Q533 159 510
148T458 137Q431 137 412 145T376 181Q357 213 344 235T319 277T292 324T254 394Q253 328 251 282T246 201T240 130T232 50Z" />
<glyph unicode="N" horiz-adv-x="795" d="M240 46Q236 18 211 7T135 -5Q98 -5 74 10T53 61Q67 177 76 289T88 511T87 726Q86 761 104 775T171 789Q210 789 234 773T281 720Q291 704 304 682T335 633T373 572T420 499T476 416T540 320Q539 390 540 438T544 527T551
609T562 708Q566 746 585 763T666 780Q719 780 733 764T745 717Q737 639 731 566T720 414T712 246T708 43Q708 18 691 4T624 -10Q579 -10 555 7T505 60Q483 90 463 119T422 179T378 245T326 320T263 409Q264 359 263 313T259 222T251 135T240 46Z" />
<glyph unicode="O" horiz-adv-x="812" d="M564 756Q579 747 588 737T597 713Q597 705 586 689T559 654T523 624T488 610Q469 609 455 615T415 621Q371 621 337 600T279 542T243 458T230 357Q230 308 241 268T275 200T328 156T399 140Q451 140 492 169T558 253T583
386Q583 432 577 462T561 512T538 549Q532 557 524 568T515 596Q515 607 528 628T560 672T596 710T623 726Q641 726 654 717T679 695T698 671Q742 611 759 538T777 387Q777 305 749 232T670 102T549 13T395 -20Q315 -20 255 2T152 62T85 147T47 245T35 341Q35 420
60 498T137 641T263 744T437 783Q464 783 500 778T564 756Z" />
<glyph unicode="P" horiz-adv-x="657" d="M89 720Q91 746 101 759T139 776Q153 778 184 779T250 781T311 782Q409 782 484 754T603 672T646 541Q646 477 617 430T541 353T441 307T337 292Q312 292 294 293T258 298Q255 227 253 165T247 41Q246 9 218 -3T145 -15Q93
-15 74 1T57 50Q67 216 70 386T89 720ZM268 431Q285 427 297 426T325 425Q353 425 376 434T415 460T441 498T450 542Q450 568 441 586T415 618T379 637T337 643Q318 643 304 642T277 638Q275 608 274 579T272 516T268 431Z" />
<glyph unicode="Q" horiz-adv-x="805" d="M479 783Q498 782 511 772T525 745Q525 714 512 685T476 635T418 612Q360 608 323 584T264 524T235 448T227 371Q227 302 247 250T305 169T396 140Q438 140 471 158T529 208T567 286T580 386Q580 438 571 482T541 560T485
617Q458 635 451 658T444 706T445 748Q445 764 460 779T503 787Q567 768 617 728T702 632T755 513T774 387Q774 302 746 230T667 103T545 19T386 -11Q293 -11 226 21T116 108T53 227T33 358Q33 436 61 511T144 648T274 747T448 784Q456 784 464 784T479 783ZM355
213Q345 236 360 261T412 299Q449 312 467 309T493 294T505 271Q515 246 529 215T561 150T594 82T626 19T652 -33Q668 -66 659 -84T611 -120Q569 -139 543 -129T503 -91Q493 -71 478 -43T447 19T413 87T381 154T355 213Z" />
<glyph unicode="R" horiz-adv-x="735" d="M90 723Q92 749 108 763T166 777Q179 777 198 773T237 761T268 740T280 709L238 44Q236 10 204 -3T131 -16Q97 -16 71 -3T47 47L90 723ZM202 622Q190 620 182 631T169 660T161 695T158 720Q158 737 175 747T237 768Q260
773 286 775T355 778Q448 778 513 748T612 670T646 567Q646 524 630 487T586 420T523 366T449 326Q496 294 529 271T589 229T638 188T688 139Q706 120 712 109T718 81Q718 57 699 35T655 -2T608 -17Q599 -17 586 -13T562 0Q522 36 479 76T389 157T294 236T194 307L197
440Q208 439 234 435T295 431Q330 431 359 439T409 463T442 499T454 544Q454 578 434 597T383 624T317 632Q294 632 277 631T243 628T202 622Z" />
<glyph unicode="S" horiz-adv-x="625" d="M547 720Q557 715 564 704T572 670Q572 642 561 618T533 579T497 564Q487 564 478 567T450 578Q420 592 389 601T312 611Q290 611 272 606T242 589T230 562Q230 542 244 528T286 499T357 464Q435 427 487 395T566 322T593
220Q593 177 573 135T514 58T421 2T299 -19Q245 -19 201 -11T123 12T67 41Q35 64 35 94Q35 116 48 139T78 180T110 197Q118 197 128 194T152 182Q183 166 217 156T298 146Q333 146 356 154T390 174T402 202Q402 224 385 240T333 272T242 310Q200 327 163 347T97
396T52 460T35 545Q35 613 70 664T170 745T319 774Q381 774 442 759T547 720Z" />
<glyph unicode="T" horiz-adv-x="675" d="M92 589Q58 591 41 609T24 686Q24 733 41 751T89 768Q117 767 160 766T249 765T333 764Q408 764 481 765T621 770Q649 771 664 753T680 690Q680 630 664 611T613 591Q553 589 482 587T336 585Q271 585 207 586T92 589ZM243
697Q243 707 255 714T283 726T316 733T339 736Q347 736 362 734T394 726T422 714T434 697Q434 524 428 358T410 37Q409 15 393 3T356 -15T313 -20Q292 -20 270 -15T234 5T221 44Q232 188 237 356T243 697Z" />
<glyph unicode="U" horiz-adv-x="756" d="M83 700Q90 731 109 750T186 769Q239 769 262 750T281 696Q279 684 277 656T272 589T267 508T265 427Q265 337 275 277T311 188T386 158Q418 158 442 173T483 223T508 313T516 451Q516 527 510 591T501 711Q499 742 517
759T586 776Q629 776 651 766T682 739T692 703Q695 674 697 647T702 588T705 518T706 427Q706 338 689 260T633 121T534 26T383 -8Q295 -8 238 15T146 79T95 177T71 299Q67 338 65 389T63 496T69 605T83 700Z" />
<glyph unicode="V" horiz-adv-x="715" d="M30 680Q19 709 31 729T70 759T130 770Q165 770 182 760T210 725Q234 664 253 613T287 512T318 406T352 279Q383 376 412 451T472 595T541 736Q555 763 573 775T623 788Q653 788 678 776T715 746T716 705Q670 615 626
521T541 337T469 172T416 41Q407 18 382 -1T320 -21Q277 -21 255 -2T224 51Q204 137 184 214T142 365T92 517T30 680Z" />
<glyph unicode="W" horiz-adv-x="1058" d="M27 688Q20 718 43 743T125 769Q160 769 185 753T214 711Q224 659 231 620T245 548T260 481T278 404T301 304Q319 367 333 414T359 498T384 570T412 642T449 728Q461 756 478 768T532 780Q573 780 601 769T637 714Q649
653 660 606T684 513T713 416T751 295Q769 360 782 408T807 495T830 569T855 643T884 731Q895 764 914 777T964 790Q1011 790 1034 775T1062 738T1060 700Q1044 660 1025 607T986 495T947 374T909 255T876 147T851 61Q838 16 811 -1T749 -19Q700 -19 679 -3T648
49Q639 83 628 121T603 202T576 293T549 394T522 505Q493 435 471 369T429 227T382 51Q372 13 340 0T275 -14Q241 -14 218 0T186 49L27 688Z" />
<glyph unicode="X" horiz-adv-x="661" d="M67 697Q58 713 62 733T90 769T165 785Q203 785 225 771T266 722L631 75Q648 45 641 25T609 -5T549 -16Q495 -16 475 -2T442 34L67 697ZM172 32Q153 7 132 -1T90 -9Q59 -9 34 8T0 51T11 102L487 733Q505 756 522 768T570
780Q605 780 631 763T667 723T663 680L172 32Z" />
<glyph unicode="Y" horiz-adv-x="646" d="M25 687Q15 706 25 727T61 763T120 778Q160 778 177 766T204 736Q216 712 231 684T261 626T289 571T313 527T326 503Q364 562 391 603T444 680T499 752Q510 766 523 773T560 780Q600 780 624 760T655 712T645 663Q604
612 566 562T490 459T409 340Q410 262 401 187T385 49Q382 18 358 2T278 -14Q229 -14 210 7T194 57Q201 121 210 187T218 330Q170 431 121 514T25 687Z" />
<glyph unicode="Z" horiz-adv-x="632" d="M116 605Q88 607 70 630T56 696Q62 747 81 761T119 774Q225 767 341 768T558 778Q569 779 581 769T601 740T605 693T578 627Q535 558 501 503T433 397T363 289T278 156Q306 157 323 157T358 158T405 159Q445 159 479 158T546
154Q566 153 582 135T595 62Q593 20 577 5T535 -10Q486 -8 438 -7T335 -6Q274 -6 212 -9T88 -13Q56 -13 36 4T13 49T32 109Q71 165 101 210T157 294T206 367T251 439T299 515T354 605Q304 603 268 602T198 602T116 605Z" />
<glyph unicode="[" horiz-adv-x="472" d="M98 815Q100 847 119 858T161 870Q199 870 227 859T254 815Q250 760 246 686T240 527T235 353T231 179T228 19T226 -113Q225 -140 195 -151T130 -162Q107 -162 88 -151T70 -113Q71 -56 72 18T75 178T79 353T83 527T90
686T98 815ZM176 739Q151 739 139 760T127 805Q127 830 139 850T176 870Q223 870 278 869T386 870Q409 871 422 850T436 803Q436 775 422 758T386 739Q334 737 279 738T176 739ZM151 -163Q122 -164 107 -144T91 -99Q91 -72 106 -55T149 -33Q163 -31 189 -30T247
-29T305 -30T349 -32Q379 -34 393 -50T408 -99Q408 -124 397 -145T357 -166Q323 -164 298 -163T250 -161T205 -160T151 -163Z" />
<glyph unicode="\" horiz-adv-x="460" d="M168 795Q186 747 209 680T258 534T310 373T361 212T405 65T440 -53Q452 -94 439 -116T395 -147Q364 -155 335 -145T294 -94Q280 -42 260 27T216 174T167 334T116 491T69 631T28 739Q12 779 21 805T59 842Q98 857 125
847T168 795Z" />
<glyph unicode="]" horiz-adv-x="468" d="M263 811Q265 846 285 858T334 870Q354 870 374 865T408 847T421 811Q420 761 418 689T412 531T404 355T396 180T390 22T387 -101Q386 -135 361 -148T305 -161Q277 -161 253 -145T229 -101L263 811ZM120 -163Q80 -161
66 -140T51 -95Q51 -70 65 -50T120 -32Q142 -33 173 -32T236 -28T293 -24Q331 -20 347 -41T363 -89Q363 -105 358 -118T342 -139Q333 -145 321 -149T293 -155Q268 -157 236 -159T173 -162T120 -163ZM149 734Q112 733 96 753T79 797Q79 823 95 843T148 867Q174 869
216 869T316 863Q352 860 374 845T396 797Q396 772 378 751T325 732Q290 735 260 735T202 736T149 734Z" />
<glyph unicode="^" horiz-adv-x="650" d="M595 398Q595 379 582 363T550 337T512 327Q498 327 485 337T461 361Q418 422 387 465T331 542Q314 520 296 496T258 446T222 398T189 356Q176 340 165 333T141 325Q125 325 107 334T77 359T64 390Q64 402 70 415T91 450Q122
495 155 538T218 619T266 684Q277 701 292 710T331 720Q356 720 368 713T390 691Q424 643 466 590T564 460Q582 435 588 423T595 398Z" />
<glyph unicode="_" horiz-adv-x="505" d="M418 -24Q441 -22 454 -39T467 -89Q467 -120 454 -139T418 -161Q352 -167 284 -170T148 -173Q126 -173 105 -173T63 -172Q38 -171 25 -153T12 -102Q12 -70 24 -52T59 -34Q143 -34 236 -32T418 -24Z" />
<glyph unicode="`" horiz-adv-x="500" d="M345 638Q326 616 307 617T275 628Q253 644 227 668T179 717T146 761Q133 784 131 803T160 851Q189 877 218 877T258 854Q266 836 290 798T349 717Q361 702 363 681T345 638Z" />
<glyph unicode="a" horiz-adv-x="692" d="M30 234Q30 295 48 352T100 455T183 528T297 555Q339 555 368 542T419 505Q424 527 436 542T484 558Q525 558 556 539T586 492Q585 466 576 419T561 327Q559 313 556 292T551 251T546 215Q545 201 545 180T549 144T568
128Q575 128 580 131T591 138Q602 145 609 149T629 153Q643 153 655 143T674 114T674 75Q668 56 645 37T591 4T531 -9Q502 -9 478 3T436 37T412 87Q387 49 343 23T245 -3Q178 -3 130 28T56 112T30 234ZM221 242Q221 215 226 192T244 155T278 141Q295 141 309 149T334
173T351 208Q358 231 363 254T373 302T380 349T384 396Q373 407 358 413T323 420Q299 420 280 407T248 369T228 313T221 242Z" />
<glyph unicode="b" horiz-adv-x="606" d="M78 758Q80 796 101 815T183 835Q233 835 254 818T272 758Q270 731 268 700T263 634T258 558T254 471Q264 487 282 506T328 540T395 555Q455 555 495 524T555 435T575 296Q575 211 545 142T460 32T329 -9Q291 -9 260 1T206
29Q199 10 178 3T120 -4Q83 -4 63 6T43 35Q43 44 43 55T45 72Q34 80 30 94T25 125Q25 141 31 154T50 174Q56 285 60 381T68 570T78 758ZM232 152Q246 140 261 134T295 128Q321 128 341 145T372 196T383 281Q383 314 377 340T359 380T324 395Q307 395 292 383T266
350T247 308T238 267Q237 247 236 227T235 189T232 152Z" />
<glyph unicode="c" horiz-adv-x="560" d="M279 -4Q214 -4 167 19T88 82T42 171T27 271Q27 329 47 380T104 471T195 532T313 555Q351 555 385 546T451 515T511 454Q518 444 521 434T524 413Q524 395 510 381T478 357T443 348Q430 348 421 355T400 375Q382 398 362
407T318 417Q295 417 277 406T245 375T224 328T216 267Q216 241 224 212T252 161T300 140Q338 140 363 159T414 206Q423 216 431 220T451 224Q467 224 485 213T517 184T531 149Q531 142 529 132T516 109Q469 52 404 24T279 -4Z" />
<glyph unicode="d" horiz-adv-x="628" d="M414 771Q416 807 439 820T499 834Q552 834 577 820T600 764Q589 595 581 410T565 48Q564 14 535 1T467 -13Q427 -13 407 1T387 35Q387 44 388 52T390 71T392 93Q374 55 349 32T293 -1T228 -12Q172 -12 134 11T73 71T40
151T29 234Q29 293 47 350T98 454T179 527T285 555Q314 555 342 548T398 524Q401 570 403 613T409 697T414 771ZM221 242Q221 216 226 192T243 154T278 139Q297 139 313 153T342 191T363 240T373 292Q374 297 376 301T382 309L387 392Q369 406 356 410T323 415Q298
415 275 396T236 339T221 242Z" />
<glyph unicode="e" horiz-adv-x="546" d="M290 -5Q217 -5 166 18T84 79T38 164T23 260Q23 313 43 365T102 460T192 529T310 555Q369 555 408 538T467 488T487 410Q487 361 468 326T411 265Q368 236 320 222T212 202Q221 184 233 170T264 146T308 137Q342 137 368
153T415 191Q428 205 437 209T454 213Q468 213 483 202T512 176T528 144Q532 128 525 113T510 90Q473 50 416 23T290 -5ZM204 319Q227 321 239 324T273 336Q294 344 309 361T324 402Q324 411 320 418T308 429T288 434Q272 434 258 422T232 392T214 355T204 319Z"
/>
<glyph unicode="f" horiz-adv-x="512" d="M226 -20Q173 -20 155 -4T136 52Q136 85 136 114T138 177T141 261Q142 287 143 324T147 421T160 571Q165 619 175 656T199 722T231 771Q251 793 289 810T385 827Q414 827 446 820T508 799T554 765Q568 750 568 731Q568
715 559 697T535 666T505 653Q489 653 466 668Q446 682 431 689T400 696Q389 696 378 690T358 661T345 592Q339 524 336 479T331 404T328 350T325 300Q323 245 322 206T321 131T319 52Q318 16 300 -2T226 -20ZM65 404Q51 404 40 417T23 448T17 480Q17 508 28 518T52
534Q74 543 107 548T185 555T288 555Q310 555 341 555T400 554T442 554Q470 554 484 540T499 495Q499 449 483 433T444 416Q434 416 413 416T370 417T338 418Q307 418 266 417T184 414T114 409Q107 408 90 406T65 404Z" />
<glyph unicode="g" horiz-adv-x="618" d="M29 242Q29 304 49 360T106 460T192 529T301 555Q332 555 360 548T410 527Q416 544 430 549T475 554Q529 554 548 546T566 517L565 484Q574 475 578 463T583 426Q583 382 564 360V341Q564 321 565 299T566 236Q566 182
563 118T555 0Q547 -88 512 -150T422 -246T299 -279Q270 -279 233 -270T158 -242T88 -196Q73 -182 66 -171T59 -145Q59 -129 71 -110T99 -76T128 -61Q138 -61 149 -66T171 -78Q190 -90 208 -101T246 -120T284 -127Q307 -127 323 -117T351 -86T370 -34Q377 -4 381
14T388 47T394 80Q368 38 330 17T241 -4Q177 -4 129 29T55 119T29 242ZM289 137Q312 137 327 153T352 199T368 266Q370 278 371 297T373 337T374 374T375 394Q364 406 350 411T324 416Q301 416 282 403T250 367T229 312T221 245Q221 210 229 186T253 149T289 137Z"
/>
<glyph unicode="h" horiz-adv-x="625" d="M67 762Q68 797 90 809T157 822Q204 822 221 804T239 764Q239 744 239 725T239 676T239 596T237 462Q256 491 279 511T333 543T400 554Q459 554 493 530T543 470T563 395T569 326Q571 254 566 205T561 128Q561 98 563
76T567 38Q568 19 547 4T475 -12Q429 -12 412 2T391 48Q389 65 389 94T391 158T393 226T395 285Q395 343 386 366T348 390Q327 390 307 375T270 338T244 290Q241 226 240 166T237 61Q236 25 212 11T144 -3Q98 -3 77 10T53 45Q49 69 49 95T51 147Q53 187 56 223T68
301Q66 402 65 474T64 594T64 675T65 727T67 762Z" />
<glyph unicode="i" horiz-adv-x="316" d="M78 489Q78 511 92 525T127 547T168 555Q217 555 240 539T263 490Q263 423 259 370T250 268T241 166T234 44Q233 13 209 -1T141 -15Q101 -15 81 -5T54 20T47 50Q47 59 50 94T57 179T67 287T75 397T78 489ZM78 711Q78 742
91 764T127 797T177 809Q224 809 248 795T282 761T291 722Q291 676 260 651T179 625Q133 625 106 646T78 711Z" />
<glyph unicode="j" horiz-adv-x="358" d="M109 494Q114 529 137 542T210 555Q253 555 272 546T297 524T302 501Q302 491 301 477T297 437T294 368T291 254Q290 190 289 135T283 28T267 -81Q257 -132 231 -173T166 -239T79 -264Q36 -264 -12 -241T-95 -180Q-107
-167 -110 -157T-114 -134Q-114 -115 -100 -96T-66 -63T-33 -50Q-22 -50 -14 -56T5 -74Q19 -90 29 -101T48 -112Q56 -112 64 -94T81 -36T94 71T99 236Q99 307 100 375T109 494ZM120 719Q120 769 152 792T230 815Q273 815 298 789T324 728Q324 694 305 672T257 639T202
628Q164 628 142 656T120 719Z" />
<glyph unicode="k" horiz-adv-x="687" d="M84 770Q86 797 106 809T186 822Q236 822 250 804T264 762Q264 738 259 694T246 573T232 370Q238 374 253 385T288 413T331 449T379 488T425 526Q443 541 457 547T491 554Q517 554 533 543T559 514T573 482T577 457Q577
447 573 437T555 416Q542 406 528 395T497 372T463 347T429 322T394 296Q406 276 418 255T443 212Q454 193 463 181T480 163T499 157Q513 157 525 169T554 200Q562 210 572 216T594 222Q615 222 633 210T662 180T673 144Q673 125 664 108T640 79Q619 60 590 40T526
6T454 -8Q415 -8 388 5T340 42T299 99Q273 143 260 173T229 236Q228 183 226 135T223 48Q222 14 203 2T141 -10Q86 -10 64 2T42 48Q48 224 58 411T84 770Z" />
<glyph unicode="l" horiz-adv-x="312" d="M93 761Q96 795 116 808T192 822Q231 822 250 813T274 788T279 757Q277 729 271 671T258 508T245 236Q244 183 242 136T239 54Q238 16 218 3T147 -10Q94 -10 73 3T53 59Q56 143 59 232T68 411T79 589T93 761Z" />
<glyph unicode="m" horiz-adv-x="941" d="M75 508Q79 531 103 543T157 556Q189 556 210 542T231 508Q231 498 229 484T223 447Q246 482 271 505T328 539T399 551Q425 551 451 543T501 513T540 452Q560 482 586 505T644 541T716 555Q772 555 807 533T860 474T884
389T891 290Q891 257 889 230T884 176T878 122T871 61Q867 24 840 10T784 -5Q725 -5 708 9T691 52Q691 68 694 90T701 141T709 206T712 285Q712 331 704 360T663 390Q647 390 633 381T606 358T583 325T564 288Q564 269 563 255T562 229T560 202Q559 173 558 146T555
95T554 53Q553 16 533 3T460 -11Q411 -11 391 3T371 58Q372 91 375 128T381 208T384 297Q384 346 376 368T342 390Q324 390 306 379T273 350T244 308Q242 258 240 209T237 119T233 53Q231 16 211 3T147 -11Q93 -11 70 3T48 58Q50 108 52 174T57 309Q59 361 63 412T75
508Z" />
<glyph unicode="n" horiz-adv-x="621" d="M64 510Q69 540 91 551T159 563Q202 563 219 547T237 515Q237 506 235 494T232 467T230 433Q240 457 257 485T307 532T397 552Q485 552 529 489T574 322Q574 269 567 223T553 134T546 47Q546 25 523 6T448 -13Q398 -13
380 6T361 53Q361 97 369 133T385 208T393 297Q393 331 388 351T372 380T344 390Q326 390 311 378T282 345T259 299T240 247Q244 192 245 138T243 42Q242 20 221 3T150 -14Q106 -14 85 -2T58 29T52 71Q52 106 55 145T66 221Q64 275 62 319T59 399T59 462T64 510Z"
/>
<glyph unicode="o" horiz-adv-x="598" d="M314 555Q338 555 372 550T438 536T485 513Q533 476 555 416T578 287Q578 232 563 180T515 85T434 17T316 -8Q237 -8 181 14T90 75T39 164T23 271Q23 325 40 376T92 467T183 531T314 555ZM212 276Q212 242 221 209T252
155T308 133Q331 133 347 146T372 182T385 229T389 278Q389 334 376 364T341 410Q331 413 324 414T307 415Q279 415 260 403T231 371T217 327T212 276Z" />
<glyph unicode="p" horiz-adv-x="633" d="M134 -285Q82 -285 56 -271T33 -215Q37 -158 40 -100T46 17T52 135T57 253T63 369T68 483Q70 526 99 540T166 555Q207 555 224 538T241 501Q241 488 241 475T239 443Q267 500 311 527T405 555Q461 555 499 532T560 472T593
391T604 308Q604 249 586 192T535 88T454 14T348 -14Q319 -14 291 -6T235 18Q231 -50 230 -110T225 -222Q223 -258 198 -271T134 -285ZM318 121Q337 121 354 132T384 166T404 222T412 300Q412 320 410 337T401 367T386 387T361 395Q342 395 325 382T293 349T267
307T250 266Q249 237 247 208T244 150Q259 139 279 130T318 121Z" />
<glyph unicode="q" horiz-adv-x="626" d="M419 514Q424 535 445 545T499 555Q558 555 576 541T594 506Q594 480 587 447T575 388L568 306Q556 165 552 25T547 -243Q547 -275 523 -289T450 -303Q405 -303 384 -285T363 -233Q364 -212 366 -175T370 -93T375 -6T379
72Q354 38 319 17T233 -5Q173 -5 127 28T55 116T29 235Q29 303 49 361T107 462T193 530T299 555Q337 555 364 542T417 506L419 514ZM224 243Q224 204 233 181T255 149T283 139Q310 139 329 156T359 201T376 263Q379 298 381 320T384 357T387 385Q375 400 359 407T326
415Q297 415 274 394T238 334T224 243Z" />
<glyph unicode="r" horiz-adv-x="531" d="M67 481Q68 519 90 536T172 553Q216 553 234 538T252 501Q252 495 252 487T252 468T249 444Q272 494 310 524T396 555Q410 555 435 551T488 530Q500 523 514 504T520 442Q513 405 494 387T450 368Q440 368 432 370T414
377Q403 382 390 386T358 390Q313 390 285 349T243 248Q242 214 242 185T241 131T240 86T239 50Q239 25 223 12T188 -7T156 -13Q109 -13 86 0T56 34T49 81Q49 101 51 131T56 191T62 241L67 481Z" />
<glyph unicode="s" horiz-adv-x="484" d="M439 499Q447 491 453 480T460 453Q460 439 450 421T423 389T389 375Q373 375 364 380T346 392Q330 406 309 418T264 430Q251 430 240 424T229 404Q229 388 249 376T317 338Q358 316 388 296T434 247T450 172Q450 124
424 83T351 17T239 -8Q184 -8 130 4T38 49Q29 57 22 67T14 95Q14 124 33 149T75 174Q84 174 90 172T103 165Q135 145 162 134T223 123Q242 123 253 128T265 144Q265 161 246 172T194 199Q134 228 101 255T55 312T41 378Q41 428 69 468T147 531T261 555Q308 555
359 542T439 499Z" />
<glyph unicode="t" horiz-adv-x="502" d="M107 633Q111 657 127 671T187 686Q216 686 242 681T283 662T294 622Q288 573 282 519T273 406T272 285Q274 224 279 196T293 159T310 151Q319 151 329 159T349 177T365 195Q371 202 379 208T401 215Q416 215 434 206T465
182T478 145Q478 138 474 119T441 72Q412 45 377 27T307 1T245 -8Q174 -8 143 26T97 117Q87 161 85 202T83 288Q83 349 85 406T92 519T107 633ZM60 409Q41 408 27 423T12 473Q12 505 26 520T60 536Q86 538 127 539T217 541T315 542T405 543Q422 543 437 528T453
475Q453 444 437 430T405 416Q363 416 320 416T233 415T146 413T60 409Z" />
<glyph unicode="u" horiz-adv-x="622" d="M222 -13Q178 -13 146 3T92 50T60 123T49 217Q49 297 57 361T77 492Q81 515 102 533T175 552Q225 552 245 532T261 479Q254 437 247 402T235 330T230 242Q230 209 234 189T248 159T275 149Q293 149 308 161T337 194T361
240T379 292Q375 348 374 402T376 497Q378 520 399 536T469 553Q514 553 534 541T561 510T567 468Q567 450 567 432T565 394T560 356T553 318Q557 211 556 148T555 39Q555 9 531 -2T460 -14Q417 -14 400 2T382 34Q382 44 384 55T388 82T389 116Q382 98 371 76T342
34T294 0T222 -13Z" />
<glyph unicode="v" horiz-adv-x="583" d="M39 449Q31 471 30 481T28 497Q28 515 50 535T111 556Q153 556 173 543T200 507Q212 467 221 432T241 360T263 283T290 188Q308 241 320 278T344 347T369 417T407 507Q417 530 433 542T475 555Q495 555 518 547T557 525T574
492Q574 483 571 469T558 435Q545 409 527 366T487 274T445 176T410 91T387 35Q378 13 352 0T285 -14Q242 -14 214 2T173 56Q159 100 143 149T109 249T74 352T39 449Z" />
<glyph unicode="w" horiz-adv-x="865" d="M597 -15Q572 -15 547 -6T512 31Q502 64 494 90T477 143T459 200T436 275Q408 210 392 164T367 86T347 31Q338 8 319 -1T278 -11T243 -12Q210 -12 191 2T165 44Q149 117 124 188T73 332T31 482Q30 490 29 494T28 506Q28
520 49 538T116 555Q154 554 171 544T195 511Q206 472 214 442T231 381T248 315T271 225Q295 284 309 324T335 400T359 477Q356 509 371 527T411 552T459 560Q491 560 512 549T538 520Q546 493 550 471T562 416Q569 386 574 364T584 323T595 280T610 225Q626 287
639 331T667 420T702 521Q710 542 726 550T764 559Q811 559 832 543T853 497Q853 490 852 485T848 474Q821 397 797 328T748 188T697 38Q690 18 669 2T597 -15Z" />
<glyph unicode="x" horiz-adv-x="570" d="M107 -19Q78 -19 54 -9T15 16T1 46Q1 53 4 59T13 73Q75 145 138 218T265 366T393 521Q406 537 415 545T440 554Q479 557 505 546T545 520T559 493Q559 479 551 467T537 448Q435 333 348 227T171 15Q155 -4 137 -11T107
-19ZM428 -9Q408 -7 397 3T373 29Q347 64 322 97T270 161T219 223T168 285T117 348T68 413T19 483Q13 494 13 504Q13 523 25 534T55 551T91 558T121 560Q157 560 171 551T190 533Q226 479 270 421T361 305T454 190T539 82Q545 75 551 66T557 47Q557 31 538 18T488
-4T428 -9Z" />
<glyph unicode="y" horiz-adv-x="586" d="M73 501Q80 533 96 542T155 552Q164 552 180 549T213 538T241 519T253 488Q253 468 247 443T234 380T227 280Q227 228 231 200T244 160T271 149Q285 149 300 157T330 182T356 218V263Q356 310 358 356T367 443T383 509Q391
531 408 543T453 555Q496 555 516 546T542 519T548 479Q548 418 541 349T515 217Q516 196 517 174T520 130T522 86Q522 15 512 -52T474 -173T397 -258T271 -290Q186 -290 127 -257T42 -180Q35 -168 34 -159T32 -144Q32 -123 47 -104T83 -73T120 -61Q134 -61 144
-68T164 -89Q186 -118 209 -131T261 -144Q295 -144 314 -125T342 -58T356 69Q332 32 305 9T233 -14Q179 -14 144 7T87 67T58 159T49 275Q49 314 53 357T62 438T73 501Z" />
<glyph unicode="z" horiz-adv-x="584" d="M92 406Q56 406 41 426T28 483Q30 517 50 531T98 546Q182 546 241 546T342 546T413 547T467 549Q502 550 516 535T531 497Q531 472 518 450T490 410Q449 355 418 311T360 230T309 159Q348 156 379 154T442 150T510 147Q530
147 543 131T557 80Q557 36 538 19T486 1Q456 1 412 5T314 15T198 26Q183 7 154 -5T89 -14Q59 -10 43 6T26 50Q26 82 47 106T99 159Q119 183 135 204T167 244T195 283T221 321T248 361T278 405L92 406Z" />
<glyph unicode="{" horiz-adv-x="454" d="M328 892Q366 892 383 875T401 821Q401 790 384 775T327 758Q287 756 270 740T253 698Q253 677 264 654T289 604T314 548T325 484Q325 458 313 435T279 393T225 363Q272 356 299 331T326 265Q326 229 316 196T294 131T271
65T261 -9Q261 -23 268 -36T296 -49Q303 -49 313 -47T340 -35Q356 -26 368 -31T387 -49T398 -75T402 -97Q402 -116 393 -129T372 -152Q352 -168 325 -176T267 -185Q217 -185 183 -162T131 -98T114 -11Q114 34 124 75T146 151T169 211T179 248Q179 273 165 282T113
292Q88 292 74 309T60 356Q60 388 74 406T115 425Q150 427 163 438T177 478Q177 495 167 517T142 568T117 628T106 695Q106 762 136 805T217 870T328 892Z" />
<glyph unicode="|" horiz-adv-x="326" d="M104 808Q107 843 125 860T181 878Q216 878 239 861T260 808Q256 754 252 681T245 524T239 353T235 181T232 23T231 -104Q231 -138 211 -155T156 -173Q118 -173 97 -156T75 -104Q75 -50 76 23T78 180T82 352T88 524T96
681T104 808Z" />
<glyph unicode="}" horiz-adv-x="444" d="M100 -184Q69 -184 53 -169T37 -117Q37 -86 53 -74T101 -58Q149 -51 167 -34T185 9Q185 38 170 69T140 135T125 203Q125 233 135 259T167 306T225 340Q174 350 149 378T124 453Q124 482 135 512T161 574T187 641T199 716Q199
736 192 747T171 758Q164 758 152 757T125 748Q104 738 81 757T58 814Q58 828 65 838T85 859Q105 875 135 883T188 892Q239 892 274 869T327 806T346 718Q346 673 335 631T309 553T283 492T271 455Q271 430 287 421T347 411Q367 411 378 394T390 347Q390 316 378
298T345 278Q305 277 289 265T273 225Q273 203 288 171T317 98T332 12Q332 -38 312 -75T258 -136T183 -172T100 -184Z" />
<glyph unicode="~" horiz-adv-x="650" d="M451 195Q404 195 368 207T304 236T255 265T216 278Q198 278 191 269T184 233Q184 212 171 200T128 188Q93 188 78 200T61 238Q56 318 89 370T200 423Q244 423 276 411T333 381T382 352T430 339Q450 339 460 352T471 399Q473
436 523 436Q556 436 574 421T592 377Q588 292 552 244T451 195Z" />
<glyph unicode="&#xa0;" horiz-adv-x="320" />
<glyph unicode="&#xa1;" horiz-adv-x="293" d="M139 -272Q110 -272 86 -260T63 -213Q65 -166 66 -106T69 19T70 142T69 241Q68 268 92 279T147 290Q176 290 200 278T227 231Q227 227 227 199T227 128T226 36T224 -62T222 -151T220 -213Q219 -247 194 -259T139
-272ZM153 353Q119 353 97 368T64 407T53 455Q53 490 81 519T156 548Q202 548 228 518T254 449Q254 424 239 402T201 367T153 353Z" />
<glyph unicode="&#xa2;" horiz-adv-x="594" d="M539 606Q554 592 558 582T562 561Q562 547 552 530T526 502T496 490Q482 490 471 495T445 511Q431 522 406 526T346 531Q329 531 308 524T266 499T232 452T219 377Q219 337 237 311T283 273T338 260Q377 260 404
274T440 302Q464 335 489 335Q521 335 545 315T569 265Q569 248 555 229Q539 205 509 181T432 142T322 126Q264 126 214 142T125 190T66 271T44 386Q44 442 66 492T128 581T222 643T341 666Q417 666 465 648T539 606ZM362 721Q366 743 381 754T423 762Q452 759
463 746T471 712Q465 673 455 615T430 486T401 341T370 193T343 58Q339 36 323 25T281 17Q252 21 241 34T234 67Q246 129 261 202T291 350T321 495T345 623T362 721Z" />
<glyph unicode="&#xa3;" horiz-adv-x="726" d="M98 -28Q67 -28 45 -12T22 38Q22 69 44 101T100 159T172 193Q173 210 173 225T173 256Q174 289 167 321T149 388T130 458T121 535Q121 607 157 660T253 742T385 771Q432 771 480 757T569 717T634 656Q640 648 642
638T645 619Q645 600 631 581T598 548T560 535Q545 535 534 543T516 556Q476 591 444 604T371 618Q347 618 329 609T301 582T291 535Q291 514 298 488T314 432T331 368T338 294Q338 260 333 229T310 167L303 212Q323 190 350 172T408 143T467 132Q494 132 510 139T538
163T566 205Q575 219 588 226T618 233Q636 233 654 224T685 201T697 169Q697 156 693 142T683 114Q652 49 600 15T478 -20Q445 -20 411 -14T345 4T285 32T236 68Q208 22 171 -3T98 -28ZM501 309Q463 306 408 304T292 301T176 300T83 302Q59 303 49 318T38 364Q38
394 48 411T83 426Q101 425 139 425T227 425T329 426T426 429T501 434Q523 436 535 420T548 371Q548 340 535 326T501 309Z" />
<glyph unicode="&#xa4;" horiz-adv-x="665" d="M321 103Q255 103 203 134T121 219T91 341Q91 389 113 432T171 508T253 560T345 579Q395 579 439 561T517 509T570 432T590 337Q590 271 555 218T460 134T321 103ZM330 224Q361 224 388 237T433 276T450 337Q450
365 440 387T414 426T379 450T342 459Q311 459 286 445T246 404T231 341Q231 306 244 280T281 239T330 224ZM608 85Q577 54 551 52T503 68Q490 81 470 102T431 145T403 177L513 286Q522 276 540 255T579 212T613 178Q636 157 633 132T608 85ZM497 385L388 495Q398
504 419 522T462 561T496 595Q517 618 542 615T589 590Q620 559 623 533T606 485Q594 472 572 452T529 413T497 385ZM159 367Q151 377 132 398T93 441T59 475Q36 496 39 521T64 568Q96 599 121 602T169 585Q183 573 203 551T241 508T269 476L159 367ZM93 63Q62
95 60 120T76 168Q89 182 110 202T153 240T185 268L294 158Q284 150 263 131T220 92T186 58Q165 35 140 38T93 63Z" />
<glyph unicode="&#xa5;" horiz-adv-x="624" d="M57 632Q47 649 38 667T30 699Q32 729 59 751T123 773Q142 773 156 767T186 732Q207 696 230 657T276 580T314 515T337 474Q369 407 378 363T388 287Q389 257 389 227T390 168T389 108T386 48Q384 14 360 2T302 -11Q268
-11 244 1T220 48Q221 66 222 101T224 175T225 248T226 295Q225 327 210 360T184 414Q183 415 172 435T143 484T108 545T76 600T57 632ZM376 337Q369 326 352 319T323 311Q304 311 284 320T251 348T237 394Q237 406 247 423T270 459T292 489Q313 519 338 553T389
622T436 686T471 733Q489 758 503 764T530 771Q557 771 578 758T611 724T623 683Q623 674 621 666T613 649Q606 639 585 612T534 547T475 469T418 394T376 337ZM98 313Q79 314 69 327T59 367Q59 393 69 408T98 422Q119 421 157 421T244 420T343 421T439 424T518
429Q535 431 546 417T559 374Q559 346 547 334T518 320Q476 317 422 315T308 312T195 311T98 313ZM516 258Q536 259 545 245T555 204Q555 178 546 165T516 149Q490 147 441 146T334 144T219 145T121 150Q104 152 93 165T80 207Q80 235 94 247T130 258Q169 255 218
254T320 253T423 254T516 258Z" />
<glyph unicode="&#xa6;" horiz-adv-x="327" d="M91 231Q96 266 116 278T172 291Q203 291 227 279T247 231Q235 130 233 40T230 -114Q230 -141 205 -157T150 -173Q114 -173 94 -157T74 -114Q74 -51 76 39T91 231ZM104 815Q106 844 126 861T184 878Q222 878 242
861T260 815Q253 708 251 628T248 485Q248 457 230 441T173 425Q135 425 114 441T92 485Q92 547 94 627T104 815Z" />
<glyph unicode="&#xa7;" horiz-adv-x="626" d="M308 -122Q265 -122 229 -109T169 -74Q156 -61 150 -51T143 -24Q143 -6 156 15T188 52T224 67Q236 67 248 63T274 50Q282 44 290 41T304 38Q312 38 319 43T326 61Q326 79 308 95T262 130T209 171Q175 201 145 233T97
307T78 402Q78 441 96 480T155 545Q146 563 142 581T138 615Q138 664 163 705T230 771T323 796Q370 796 401 782T456 744Q468 731 474 720T480 694Q480 672 467 651T435 615T397 601Q382 601 373 610T346 629Q341 632 333 634T321 637Q316 637 312 635T306 629T304
619Q304 600 324 583T374 548T434 507Q469 480 502 446T558 369T580 267Q580 219 556 175T481 108Q497 75 497 41Q497 -2 469 -39T398 -99T308 -122ZM402 227Q404 229 405 231T408 237T409 244Q414 270 407 291T383 331T345 363Q324 377 300 393T252 425Q250 423
249 421T247 414Q243 385 260 359T303 314Q328 296 356 275T402 227Z" />
<glyph unicode="&#xa8;" horiz-adv-x="500" d="M153 624Q115 624 86 648T56 714Q56 747 70 769T105 803T149 815Q187 815 215 792T244 723Q244 697 232 674T198 638T153 624ZM381 619Q347 619 320 646T292 714Q292 737 303 760T335 798T387 814Q425 814 444 797T470
757T477 719Q477 692 464 669T428 633T381 619Z" />
<glyph unicode="&#xa9;" horiz-adv-x="922" d="M471 -24Q397 -24 324 4T190 85T93 209T57 366Q57 444 87 517T173 648T304 741T467 775Q547 775 620 745T750 661T840 538T874 389Q874 310 843 237T757 104T628 11T471 -24ZM471 99Q529 99 578 120T665 179T722
270T743 386Q743 445 720 493T657 577T569 632T470 652Q408 652 357 630T267 570T209 479T188 367Q188 303 211 254T275 170T366 117T471 99ZM472 186Q413 186 369 212T299 281T274 373Q274 413 291 450T339 516T408 562T487 579Q501 579 516 577T552 566Q573 559
582 544T591 511Q591 489 578 470T541 451Q537 451 531 452T521 455Q514 457 506 459T490 461Q464 461 442 450T408 420T395 376Q395 356 405 340T434 314T477 304Q509 304 528 316T560 339Q568 345 575 350T591 355Q613 355 629 338T645 295Q645 277 631 259T593
225Q568 208 536 197T472 186Z" />
<glyph unicode="&#xaa;" horiz-adv-x="528" d="M38 646Q38 709 62 764T132 854T243 889Q275 889 297 878T336 850Q340 867 349 879T386 891Q418 891 441 877T464 840Q464 820 457 785T445 714Q443 703 441 687T437 655T434 628Q433 617 433 601T436 573T451 561Q456
561 460 563T468 569Q477 574 482 577T497 580Q513 580 526 563T532 520Q528 506 510 491T468 466T422 456Q389 456 364 477T331 530Q312 500 278 480T203 460Q152 460 115 485T58 552T38 646ZM177 648Q177 617 188 594T228 571Q243 571 255 577T276 595T290 622Q298
646 303 670T311 719T315 767Q306 775 293 780T263 785Q243 785 227 775T200 747T183 703T177 648Z" />
<glyph unicode="&#xab;" horiz-adv-x="628" d="M506 10Q484 10 466 26T432 66Q425 77 407 99T369 147T330 195T304 227Q284 250 274 267T264 302Q264 322 277 340T312 382Q339 411 376 453T465 566Q473 576 485 583T508 590Q538 590 563 568T588 512Q588 505 585
497T574 479Q543 436 508 391T435 299Q469 258 503 214T574 123Q582 114 587 104T593 83Q593 55 569 33T506 10ZM239 37Q223 37 208 47T183 72Q158 106 133 139T86 202T47 256Q43 263 32 283T20 320Q20 336 29 351T55 387Q72 407 93 430T134 474T171 514T196 542Q207
556 217 562T242 569Q266 569 284 556T313 524T324 487Q324 474 319 465T304 445Q274 411 243 380T182 316Q213 275 244 234T307 151Q313 142 318 133T323 115Q323 83 297 60T239 37Z" />
<glyph unicode="&#xac;" horiz-adv-x="650" d="M582 183Q584 152 565 134T505 115Q469 115 451 131T428 178Q426 194 426 218T429 267T430 307Q402 307 361 307T274 306T190 304T125 302Q95 301 81 318T66 374Q66 411 80 429T125 449Q151 450 196 451T294 452T396
452T479 453T522 452Q555 452 571 437T587 390Q587 373 585 336T581 257T582 183Z" />
<glyph unicode="&#xad;" horiz-adv-x="0" />
<glyph unicode="&#xae;" horiz-adv-x="806" d="M52 623Q52 694 80 755T158 863T276 936T421 963Q528 963 608 918T732 791T777 597Q777 525 753 466T682 364T568 297T415 273Q341 273 276 295T160 360T81 469T52 623ZM135 623Q135 542 172 481T273 386T416 351Q498
351 560 381T657 467T691 601Q692 684 661 748T570 848T423 885Q341 885 276 850T173 756T135 623ZM298 449Q271 449 256 459T241 494Q241 563 244 628T253 743Q256 770 275 777T307 786Q325 787 353 788T409 789Q458 789 498 780T561 749T585 690Q585 671 576
652T549 617T501 592Q533 576 556 561T597 533Q605 526 607 521T610 509Q610 486 587 469T529 452Q522 452 506 459T473 482Q462 493 445 507T407 536T359 564Q358 551 358 532T357 494Q357 469 342 459T298 449ZM361 631Q368 631 385 631T409 631Q426 631 439
637T459 654T467 674Q467 694 449 699T408 705Q404 705 388 705T367 704Q365 686 364 667T361 631Z" />
<glyph unicode="&#xaf;" horiz-adv-x="500" d="M135 643Q110 642 97 662T84 716Q84 741 98 760T135 781Q153 782 189 782T268 782T347 780T402 777Q427 775 439 754T452 709Q452 677 440 657T402 639Q384 641 348 642T269 643T190 644T135 643Z" />
<glyph unicode="&#xb0;" horiz-adv-x="430" d="M233 798Q291 798 335 773T406 705T432 606Q432 552 404 510T325 444T211 420Q156 420 114 444T47 511T22 609Q22 664 49 706T124 773T233 798ZM231 676Q210 676 194 668T169 644T160 609Q160 589 167 574T189 551T221
542Q243 542 259 550T285 572T294 606Q294 627 286 642T264 667T231 676Z" />
<glyph unicode="&#xb1;" horiz-adv-x="650" d="M396 216Q395 190 377 177T321 164Q282 164 263 177T244 216Q244 233 244 265T246 337T247 416T248 488T247 539Q246 566 264 578T322 591Q360 591 378 579T398 539Q399 524 399 493T399 423T398 344T397 270T396
216ZM126 303Q100 303 87 320T73 375Q73 413 86 431T126 450Q153 450 198 450T295 449T395 448T477 447T519 446Q545 446 558 429T572 374Q572 337 559 319T519 301Q513 301 481 301T401 301T301 302T202 303T126 303ZM124 -11Q98 -11 84 6T70 56Q70 95 84 115T124
136Q158 136 209 136T318 137T429 139T521 142Q547 144 561 125T575 66Q575 34 561 17T521 -3Q482 -6 430 -7T321 -9T213 -10T124 -11Z" />
<glyph unicode="&#xb2;" horiz-adv-x="537" d="M42 746Q42 791 71 827T147 886T249 908Q322 908 369 889T441 833T465 745Q465 705 446 667T395 594T320 525Q345 527 368 527T413 525T454 519Q480 515 491 501T503 453Q503 413 487 399T442 389Q428 392 402 394T345
397T287 399T242 400Q211 400 182 396T129 389T84 385Q64 385 51 395T38 430Q38 459 53 479T106 520Q143 541 181 567T252 622T305 680T325 737Q325 766 306 783T249 800Q219 800 201 785T172 737Q167 721 154 711T108 700Q72 700 57 712T42 746Z" />
<glyph unicode="&#xb3;" horiz-adv-x="523" d="M254 381Q193 381 135 405T39 466Q28 477 28 492Q28 518 44 540T81 563Q88 563 97 562T117 549Q128 540 147 529T193 509T255 500Q289 500 311 505T345 524T357 557Q357 575 345 587T289 607Q274 599 255 593T216
586T175 587Q156 591 146 606T135 636Q135 654 145 669T175 692Q198 700 222 698T274 685Q306 699 315 712T325 740Q325 759 315 769T286 784T241 788Q212 788 184 779T139 750Q132 741 124 738T107 735Q85 735 66 754T46 798Q46 806 51 816T66 835Q97 861 146
884T259 908Q327 908 372 891T441 841T464 764Q464 735 449 707T409 658Q451 639 474 614T497 541Q497 520 485 493T446 441T371 398T254 381Z" />
<glyph unicode="&#xb4;" horiz-adv-x="500" d="M296 641Q284 626 264 619T218 625Q193 639 189 656T191 689Q202 715 219 746T254 805T286 848Q304 868 326 875T383 860Q415 838 421 811T411 766Q400 754 366 720T296 641Z" />
<glyph unicode="&#xb5;" horiz-adv-x="645" d="M138 -264Q101 -264 78 -246T55 -196Q56 -169 55 -147T53 -104T52 -55Q52 -22 52 24T55 124T61 233Q67 299 75 362T95 472Q107 520 129 534T183 548Q213 548 236 539T270 510T273 453Q265 417 257 375T245 293T240
225Q240 210 241 192T249 161T270 147Q287 147 305 164T340 208T371 265T394 324Q393 359 395 395T401 461T408 507Q415 537 441 550T506 564Q543 564 566 536T590 465Q590 452 589 437T584 405T577 370T567 330Q565 316 564 291T563 252Q563 209 567 173T577 110T586
69Q593 39 581 19T546 -10T501 -20Q468 -20 444 -9T411 38Q407 54 404 72T397 112Q388 84 373 61T340 20T300 -7T257 -16Q240 -16 224 -11T195 4Q197 -19 200 -42T208 -89Q213 -120 216 -149T220 -205Q221 -227 208 -240T176 -258T138 -264Z" />
<glyph unicode="&#xb6;" horiz-adv-x="910" d="M444 -17Q392 -17 372 -2T351 45Q351 66 352 95T353 159T354 228T353 293Q337 286 313 284T274 282Q167 282 112 341T57 504Q57 546 74 591T130 677T232 742T386 767Q409 767 433 765T478 758Q534 746 549 725T558
668Q552 640 549 596T543 502T540 411T539 345Q539 291 540 239T541 139T540 44Q539 13 515 -2T444 -17ZM318 434Q332 434 341 436T363 442Q365 483 367 526T378 612Q374 613 369 613T359 613Q331 613 311 606T276 586T255 556T248 518Q248 488 256 470T279 443T318
434ZM713 -20Q668 -20 647 -8T623 30Q618 133 618 234T620 426T624 586T622 698Q619 732 644 747T715 763Q759 763 784 750T809 711Q809 588 808 499T806 344T805 229T805 135T809 43Q811 10 789 -5T713 -20Z" />
<glyph unicode="&#xb7;" horiz-adv-x="282" d="M137 260Q92 260 61 283T30 344Q30 376 43 403T82 446T146 463Q198 463 224 437T250 369Q250 324 217 292T137 260Z" />
<glyph unicode="&#xb8;" horiz-adv-x="250" d="M-4 -266Q-30 -266 -57 -261T-107 -244Q-120 -237 -122 -226T-121 -202Q-117 -188 -108 -175T-78 -167Q-69 -169 -53 -173T-22 -177Q-6 -177 2 -170T10 -150Q10 -132 -1 -126T-30 -124Q-43 -127 -55 -124T-73 -114Q-77
-106 -76 -95T-69 -69L-41 0H52L17 -80L-19 -60Q35 -49 68 -59T116 -95T131 -156Q131 -205 96 -235T-4 -266Z" />
<glyph unicode="&#xb9;" horiz-adv-x="340" d="M95 628Q92 627 88 626T75 625Q60 625 46 638T24 670T15 708Q15 719 18 727T38 744Q69 760 106 785T177 838T226 883Q238 897 251 902T288 908Q314 908 325 901T336 874Q336 865 329 834Q312 766 304 691T294 549T295
437Q297 411 281 400T224 389Q190 389 176 402T162 447Q162 522 164 583T173 703T192 823L262 754Q243 735 213 711T152 664T95 628Z" />
<glyph unicode="&#xba;" horiz-adv-x="471" d="M239 459Q180 459 135 484T65 555T39 663Q39 725 64 776T137 859T254 890Q312 890 357 865T428 795T455 693Q455 630 430 577T357 491T239 459ZM243 579Q269 579 285 595T308 635T316 685Q316 725 298 747T248 770Q222
770 207 756T185 719T178 672Q178 643 185 622T208 590T243 579Z" />
<glyph unicode="&#xbb;" horiz-adv-x="604" d="M118 0Q74 0 50 23T25 74Q25 84 34 96T53 123Q85 170 124 218T198 319Q174 359 148 394T89 478Q82 489 77 500T72 522Q72 548 98 569T158 590Q172 590 186 582T213 555Q222 544 240 519T280 462T319 404T345 363Q350
353 353 341T357 319Q357 303 352 290T332 253Q311 220 281 181T222 104T170 34Q160 19 147 10T118 0ZM371 15Q333 15 307 35T280 86Q280 96 285 106T296 126Q321 163 342 191T385 247T428 306Q403 346 381 380T333 455Q326 463 321 473T316 494Q316 524 341 545T403
567Q417 567 430 558T454 531Q478 493 495 466T529 414T566 362Q577 346 581 333T585 311Q585 298 580 285T566 257Q529 200 490 151T423 52Q413 35 400 25T371 15Z" />
<glyph unicode="&#xbc;" horiz-adv-x="1193" d="M722 807Q742 836 765 840T815 825Q837 809 837 788T818 739Q789 698 756 650T687 547T611 428T528 295T437 148T338 -14Q321 -42 298 -48T246 -37Q200 -10 237 48Q300 149 355 237T459 402T547 541T621 654T679
743T722 807ZM104 506Q101 505 97 504T84 503Q69 503 55 516T33 548T24 586Q24 597 27 605T47 622Q78 638 115 663T186 716T235 761Q247 775 260 780T297 786Q323 786 334 779T345 752Q345 743 338 712Q321 644 313 569T303 427T304 315Q306 289 290 278T233 267Q199
267 185 280T171 325Q171 400 173 461T182 581T201 701L271 632Q252 613 222 589T161 542T104 506ZM753 478Q761 503 779 513T824 523Q864 523 879 512T894 484Q894 474 892 465T886 445Q869 384 856 338T826 239Q875 239 931 238T1038 236T1122 233Q1142 232 1150
218T1159 172Q1159 140 1148 127T1111 114Q1109 114 1083 114T1017 115T931 117T838 120T755 122T696 124Q682 125 671 134T660 157Q660 164 661 172T668 194Q670 198 677 222T694 280T715 353T737 424T753 478ZM929 365Q932 389 948 399T999 409Q1037 409 1052
399T1066 362Q1061 311 1058 272T1052 197T1049 124T1048 40Q1048 14 1033 3T979 -9Q943 -9 928 2T913 38Q913 88 915 148T921 266T929 365Z" />
<glyph unicode="&#xbd;" horiz-adv-x="1160" d="M722 807Q742 836 765 840T815 825Q837 809 837 788T818 739Q789 698 756 650T687 547T611 428T528 295T437 148T338 -14Q321 -42 298 -48T246 -37Q200 -10 237 48Q300 149 355 237T459 402T547 541T621 654T679
743T722 807ZM104 506Q101 505 97 504T84 503Q69 503 55 516T33 548T24 586Q24 597 27 605T47 622Q78 638 115 663T186 716T235 761Q247 775 260 780T297 786Q323 786 334 779T345 752Q345 743 338 712Q321 644 313 569T303 427T304 315Q306 289 290 278T233 267Q199
267 185 280T171 325Q171 400 173 461T182 581T201 701L271 632Q252 613 222 589T161 542T104 506ZM662 355Q662 400 691 436T767 495T869 517Q942 517 989 498T1061 442T1085 354Q1085 314 1066 276T1015 203T940 134Q965 136 988 136T1033 134T1074 128Q1100
124 1111 110T1123 62Q1123 22 1107 8T1062 -2Q1048 1 1022 3T965 6T907 8T862 9Q831 9 802 5T749 -2T704 -6Q684 -6 671 4T658 39Q658 68 673 88T726 129Q763 150 801 176T872 231T925 289T945 346Q945 375 926 392T869 409Q839 409 821 394T792 346Q787 330 774
320T728 309Q692 309 677 321T662 355Z" />
<glyph unicode="&#xbe;" horiz-adv-x="1300" d="M855 807Q875 836 898 840T948 825Q970 809 970 788T951 739Q922 698 889 650T820 547T744 428T661 295T570 148T471 -14Q454 -42 431 -48T379 -37Q333 -10 370 48Q433 149 488 237T592 402T680 541T754 654T812
743T855 807ZM249 259Q188 259 130 283T34 344Q23 355 23 370Q23 396 39 418T76 441Q83 441 92 440T112 427Q123 418 142 407T188 387T250 378Q284 378 306 383T340 402T352 435Q352 453 340 465T284 485Q269 477 250 471T211 464T170 465Q151 469 141 484T130
514Q130 532 140 547T170 570Q193 578 217 576T269 563Q301 577 310 590T320 618Q320 637 310 647T281 662T236 666Q207 666 179 657T134 628Q127 619 119 616T102 613Q80 613 61 632T41 676Q41 684 46 694T61 713Q92 739 141 762T254 786Q322 786 367 769T436
719T459 642Q459 613 444 585T404 536Q446 517 469 492T492 419Q492 398 480 371T441 319T366 276T249 259ZM862 478Q870 503 888 513T933 523Q973 523 988 512T1003 484Q1003 474 1001 465T995 445Q978 384 965 338T935 239Q984 239 1040 238T1147 236T1231 233Q1251
232 1259 218T1268 172Q1268 140 1257 127T1220 114Q1218 114 1192 114T1126 115T1040 117T947 120T864 122T805 124Q791 125 780 134T769 157Q769 164 770 172T777 194Q779 198 786 222T803 280T824 353T846 424T862 478ZM1038 365Q1041 389 1057 399T1108 409Q1146
409 1161 399T1175 362Q1170 311 1167 272T1161 197T1158 124T1157 40Q1157 14 1142 3T1088 -9Q1052 -9 1037 2T1022 38Q1022 88 1024 148T1030 266T1038 365Z" />
<glyph unicode="&#xbf;" horiz-adv-x="514" d="M248 -270Q178 -270 125 -241T43 -159T13 -38Q13 31 42 85T119 172T223 212L228 256Q232 291 254 303T303 315Q329 315 351 303T371 256L363 143Q361 113 341 106T281 94Q253 91 229 80T189 44T174 -30Q174 -55 184
-78T216 -117T275 -132Q308 -132 329 -125T372 -99Q391 -83 407 -83Q430 -83 447 -100T465 -147Q465 -160 461 -172T447 -197Q413 -236 359 -253T248 -270ZM301 358Q283 358 261 370T224 405T208 457Q208 479 218 501T253 539T319 555Q341 555 361 542T395 508T409
463Q409 441 395 417T356 375T301 358Z" />
<glyph unicode="&#xc0;" horiz-adv-x="793" d="M198 49Q187 15 161 0T77 -15Q31 -15 14 2T-3 38Q-3 60 4 82T19 124Q53 211 86 290T152 442T216 581T279 707Q301 750 330 769T400 789Q450 789 484 770T531 719Q534 712 547 672T580 571T623 440T672 301T720 176T760
89Q766 79 770 65T775 43Q775 21 749 1T676 -19Q644 -19 620 -12T581 24Q551 81 527 155T481 309T440 462T398 591Q349 487 313 390T249 206T198 49ZM216 179Q201 178 186 204T171 262Q171 289 186 305T223 330T264 344Q290 350 321 353T390 356T468 348Q474 347
499 349T558 354T619 360T658 364Q688 367 707 351T726 301Q726 269 703 248T645 213T573 195T509 189Q452 189 407 189T317 188T216 179ZM425 828Q401 840 372 860T318 903T279 942Q263 963 258 982T280 1033Q306 1062 335 1065T377 1049Q388 1033 417 999T486
926Q500 913 505 892T493 848Q477 823 458 822T425 828Z" />
<glyph unicode="&#xc1;" horiz-adv-x="793" d="M198 49Q187 15 161 0T77 -15Q31 -15 14 2T-3 38Q-3 60 4 82T19 124Q53 211 86 290T152 442T216 581T279 707Q301 750 330 769T400 789Q450 789 484 770T531 719Q534 712 547 672T580 571T623 440T672 301T720 176T760
89Q766 79 770 65T775 43Q775 21 749 1T676 -19Q644 -19 620 -12T581 24Q551 81 527 155T481 309T440 462T398 591Q349 487 313 390T249 206T198 49ZM216 179Q201 178 186 204T171 262Q171 289 186 305T223 330T264 344Q290 350 321 353T390 356T468 348Q474 347
499 349T558 354T619 360T658 364Q688 367 707 351T726 301Q726 269 703 248T645 213T573 195T509 189Q452 189 407 189T317 188T216 179ZM367 822Q346 822 326 839T305 878Q305 886 307 892T314 905Q329 928 351 956T397 1008T435 1045Q446 1054 457 1059T481
1065Q499 1065 518 1052T549 1020T562 980Q562 957 544 942Q531 932 491 905T409 839Q390 822 367 822Z" />
<glyph unicode="&#xc2;" horiz-adv-x="793" d="M198 49Q187 15 161 0T77 -15Q31 -15 14 2T-3 38Q-3 60 4 82T19 124Q53 211 86 290T152 442T216 581T279 707Q301 750 330 769T400 789Q450 789 484 770T531 719Q534 712 547 672T580 571T623 440T672 301T720 176T760
89Q766 79 770 65T775 43Q775 21 749 1T676 -19Q644 -19 620 -12T581 24Q551 81 527 155T481 309T440 462T398 591Q349 487 313 390T249 206T198 49ZM216 179Q201 178 186 204T171 262Q171 289 186 305T223 330T264 344Q290 350 321 353T390 356T468 348Q474 347
499 349T558 354T619 360T658 364Q688 367 707 351T726 301Q726 269 703 248T645 213T573 195T509 189Q452 189 407 189T317 188T216 179ZM324 837Q312 823 292 814T246 821Q221 837 217 854T223 892Q236 914 257 936T302 979T342 1014Q364 1032 383 1041T426 1051Q452
1051 466 1039T494 1012Q514 988 538 966T596 911Q610 898 611 876T592 832Q573 810 554 812T522 822Q498 838 466 865T413 913Q396 901 381 890T353 867T324 837Z" />
<glyph unicode="&#xc3;" horiz-adv-x="793" d="M198 49Q187 15 161 0T77 -15Q31 -15 14 2T-3 38Q-3 60 4 82T19 124Q53 211 86 290T152 442T216 581T279 707Q301 750 330 769T400 789Q450 789 484 770T531 719Q534 712 547 672T580 571T623 440T672 301T720 176T760
89Q766 79 770 65T775 43Q775 21 749 1T676 -19Q644 -19 620 -12T581 24Q551 81 527 155T481 309T440 462T398 591Q349 487 313 390T249 206T198 49ZM216 179Q201 178 186 204T171 262Q171 289 186 305T223 330T264 344Q290 350 321 353T390 356T468 348Q474 347
499 349T558 354T619 360T658 364Q688 367 707 351T726 301Q726 269 703 248T645 213T573 195T509 189Q452 189 407 189T317 188T216 179ZM503 837Q468 837 445 843T405 858T374 873T344 880Q324 880 321 848Q320 836 305 829T272 822T239 833T226 865Q229 930
260 972T349 1014Q376 1014 395 1008T430 993T461 978T496 971Q511 971 519 980T532 1005Q535 1020 550 1024T584 1024T614 1008T625 979Q615 909 580 873T503 837Z" />
<glyph unicode="&#xc4;" horiz-adv-x="793" d="M198 49Q187 15 161 0T77 -15Q31 -15 14 2T-3 38Q-3 60 4 82T19 124Q53 211 86 290T152 442T216 581T279 707Q301 750 330 769T400 789Q450 789 484 770T531 719Q534 712 547 672T580 571T623 440T672 301T720 176T760
89Q766 79 770 65T775 43Q775 21 749 1T676 -19Q644 -19 620 -12T581 24Q551 81 527 155T481 309T440 462T398 591Q349 487 313 390T249 206T198 49ZM216 179Q201 178 186 204T171 262Q171 289 186 305T223 330T264 344Q290 350 321 353T390 356T468 348Q474 347
499 349T558 354T619 360T658 364Q688 367 707 351T726 301Q726 269 703 248T645 213T573 195T509 189Q452 189 407 189T317 188T216 179ZM297 826Q259 826 230 850T200 916Q200 949 214 971T249 1005T293 1017Q331 1017 359 994T388 925Q388 899 376 876T342 840T297
826ZM525 821Q491 821 464 848T436 916Q436 939 447 962T479 1000T531 1016Q569 1016 588 999T614 959T621 921Q621 894 608 871T572 835T525 821Z" />
<glyph unicode="&#xc5;" horiz-adv-x="793" d="M198 49Q187 15 161 0T77 -15Q31 -15 14 2T-3 38Q-3 60 4 82T19 124Q53 211 86 290T152 442T216 581T279 707Q301 750 330 769T400 789Q450 789 484 770T531 719Q534 712 547 672T580 571T623 440T672 301T720 176T760
89Q766 79 770 65T775 43Q775 21 749 1T676 -19Q644 -19 620 -12T581 24Q551 81 527 155T481 309T440 462T398 591Q349 487 313 390T249 206T198 49ZM216 179Q201 178 186 204T171 262Q171 289 186 305T223 330T264 344Q290 350 321 353T390 356T468 348Q474 347
499 349T558 354T619 360T658 364Q688 367 707 351T726 301Q726 269 703 248T645 213T573 195T509 189Q452 189 407 189T317 188T216 179ZM398 817Q322 817 284 857T248 955Q250 989 270 1020T328 1072T416 1093Q469 1093 504 1074T556 1023T574 955Q574 897 532
857T398 817ZM408 913Q427 913 438 924T449 955Q449 973 440 985T413 997Q397 997 386 985T374 955Q374 936 383 925T408 913Z" />
<glyph unicode="&#xc6;" horiz-adv-x="1108" d="M211 42Q191 14 165 1T104 -12Q79 -12 54 -4T13 22T-3 62Q-2 77 5 87T25 114Q68 168 115 231T212 360T307 492T395 617T470 725Q493 757 534 774T628 792Q671 792 705 785T745 758Q761 761 787 763T845 765T910
766T975 766T1031 764Q1054 763 1068 741T1082 684Q1082 647 1068 626T1028 608Q1016 609 994 610T943 611T882 612T815 611T748 607Q747 591 745 571T742 530T739 494T738 470Q777 476 806 479T862 485T917 488T987 489Q1009 489 1019 469T1028 411Q1027 373 1010
352T961 331Q923 331 889 329T819 323T738 312Q739 299 740 281T742 242T746 201T750 162Q810 165 852 167T932 169T1018 170Q1050 170 1066 150T1083 93Q1083 53 1067 33T1022 13Q1007 13 982 13T926 13T865 11T808 9T764 6Q764 -14 740 -25T671 -36Q621 -36 595
-20T564 28Q557 96 553 177T548 346T549 522Q501 453 457 391T372 270T292 155T211 42ZM266 133Q249 133 238 152T227 215Q227 259 240 278T286 297Q332 297 390 297T506 299T610 303Q632 303 641 285T650 223Q650 177 641 158T610 139Q565 137 506 136T385 134T266
133Z" />
<glyph unicode="&#xc7;" horiz-adv-x="746" d="M676 703Q682 699 694 686T707 652Q707 626 694 604T662 567T632 553Q619 553 607 559T587 570Q556 589 530 600T480 617T430 623Q374 623 329 597T257 515T231 376Q231 310 249 258T306 176T408 146Q445 146 474
154T530 179T585 221Q594 229 602 234T621 240Q637 240 658 227T695 193T712 148Q712 129 701 112T673 77Q621 26 546 2T397 -22Q291 -22 211 24T85 157T39 367Q39 462 68 538T150 668T274 751T430 780Q469 780 512 773T597 749T676 703ZM377 -266Q351 -266 324
-261T274 -244Q261 -237 259 -226T260 -202Q264 -188 273 -175T303 -167Q312 -169 328 -173T359 -177Q375 -177 383 -170T391 -150Q391 -132 380 -126T351 -124Q338 -127 326 -124T308 -114Q304 -106 305 -95T312 -69L340 0H433L398 -80L362 -60Q416 -49 449 -59T497
-95T512 -156Q512 -205 477 -235T377 -266Z" />
<glyph unicode="&#xc8;" horiz-adv-x="622" d="M114 -15Q103 -15 88 -13T61 2T52 40Q60 145 68 257T83 483T95 703Q97 735 109 749T155 766Q201 770 264 772T396 775T529 777Q561 777 576 763T592 714Q592 656 578 638T534 619Q488 619 456 619T396 617T342 614T279
609Q277 577 276 556T273 515T269 463Q313 469 350 472T420 476T485 475Q502 475 518 460T534 406Q534 352 517 335T484 317Q459 319 427 319T354 315T261 304Q257 259 255 223T248 147Q283 149 317 152T386 157T453 162T519 164Q544 164 558 149T570 93Q568 42
555 24T522 6Q502 6 482 6T441 5Q394 4 336 1T219 -6T114 -15ZM365 828Q341 840 312 860T258 903T219 942Q203 963 198 982T220 1033Q246 1062 275 1065T317 1049Q328 1033 357 999T426 926Q440 913 445 892T433 848Q417 823 398 822T365 828Z" />
<glyph unicode="&#xc9;" horiz-adv-x="622" d="M114 -15Q103 -15 88 -13T61 2T52 40Q60 145 68 257T83 483T95 703Q97 735 109 749T155 766Q201 770 264 772T396 775T529 777Q561 777 576 763T592 714Q592 656 578 638T534 619Q488 619 456 619T396 617T342 614T279
609Q277 577 276 556T273 515T269 463Q313 469 350 472T420 476T485 475Q502 475 518 460T534 406Q534 352 517 335T484 317Q459 319 427 319T354 315T261 304Q257 259 255 223T248 147Q283 149 317 152T386 157T453 162T519 164Q544 164 558 149T570 93Q568 42
555 24T522 6Q502 6 482 6T441 5Q394 4 336 1T219 -6T114 -15ZM307 822Q286 822 266 839T245 878Q245 886 247 892T254 905Q269 928 291 956T337 1008T375 1045Q386 1054 397 1059T421 1065Q439 1065 458 1052T489 1020T502 980Q502 957 484 942Q471 932 431 905T349
839Q330 822 307 822Z" />
<glyph unicode="&#xca;" horiz-adv-x="622" d="M114 -15Q103 -15 88 -13T61 2T52 40Q60 145 68 257T83 483T95 703Q97 735 109 749T155 766Q201 770 264 772T396 775T529 777Q561 777 576 763T592 714Q592 656 578 638T534 619Q488 619 456 619T396 617T342 614T279
609Q277 577 276 556T273 515T269 463Q313 469 350 472T420 476T485 475Q502 475 518 460T534 406Q534 352 517 335T484 317Q459 319 427 319T354 315T261 304Q257 259 255 223T248 147Q283 149 317 152T386 157T453 162T519 164Q544 164 558 149T570 93Q568 42
555 24T522 6Q502 6 482 6T441 5Q394 4 336 1T219 -6T114 -15ZM264 837Q252 823 232 814T186 821Q161 837 157 854T163 892Q176 914 197 936T242 979T282 1014Q304 1032 323 1041T366 1051Q392 1051 406 1039T434 1012Q454 988 478 966T536 911Q550 898 551 876T532
832Q513 810 494 812T462 822Q438 838 406 865T353 913Q336 901 321 890T293 867T264 837Z" />
<glyph unicode="&#xcb;" horiz-adv-x="622" d="M114 -15Q103 -15 88 -13T61 2T52 40Q60 145 68 257T83 483T95 703Q97 735 109 749T155 766Q201 770 264 772T396 775T529 777Q561 777 576 763T592 714Q592 656 578 638T534 619Q488 619 456 619T396 617T342 614T279
609Q277 577 276 556T273 515T269 463Q313 469 350 472T420 476T485 475Q502 475 518 460T534 406Q534 352 517 335T484 317Q459 319 427 319T354 315T261 304Q257 259 255 223T248 147Q283 149 317 152T386 157T453 162T519 164Q544 164 558 149T570 93Q568 42
555 24T522 6Q502 6 482 6T441 5Q394 4 336 1T219 -6T114 -15ZM237 826Q199 826 170 850T140 916Q140 949 154 971T189 1005T233 1017Q271 1017 299 994T328 925Q328 899 316 876T282 840T237 826ZM465 821Q431 821 404 848T376 916Q376 939 387 962T419 1000T471
1016Q509 1016 528 999T554 959T561 921Q561 894 548 871T512 835T465 821Z" />
<glyph unicode="&#xcc;" horiz-adv-x="329" d="M94 714Q96 745 123 758T187 771Q234 771 260 757T284 708Q271 547 262 376T250 41Q249 7 220 -5T149 -17Q110 -17 84 -4T59 51Q62 206 71 377T94 714ZM211 828Q187 840 158 860T104 903T65 942Q49 963 44 982T66
1033Q92 1062 121 1065T163 1049Q174 1033 203 999T272 926Q286 913 291 892T279 848Q263 823 244 822T211 828Z" />
<glyph unicode="&#xcd;" horiz-adv-x="329" d="M94 714Q96 745 123 758T187 771Q234 771 260 757T284 708Q271 547 262 376T250 41Q249 7 220 -5T149 -17Q110 -17 84 -4T59 51Q62 206 71 377T94 714ZM153 822Q132 822 112 839T91 878Q91 886 93 892T100 905Q115
928 137 956T183 1008T221 1045Q232 1054 243 1059T267 1065Q285 1065 304 1052T335 1020T348 980Q348 957 330 942Q317 932 277 905T195 839Q176 822 153 822Z" />
<glyph unicode="&#xce;" horiz-adv-x="329" d="M94 714Q96 745 123 758T187 771Q234 771 260 757T284 708Q271 547 262 376T250 41Q249 7 220 -5T149 -17Q110 -17 84 -4T59 51Q62 206 71 377T94 714ZM110 837Q98 823 78 814T32 821Q7 837 3 854T9 892Q22 914 43
936T88 979T128 1014Q150 1032 169 1041T212 1051Q238 1051 252 1039T280 1012Q300 988 324 966T382 911Q396 898 397 876T378 832Q359 810 340 812T308 822Q284 838 252 865T199 913Q182 901 167 890T139 867T110 837Z" />
<glyph unicode="&#xcf;" horiz-adv-x="329" d="M94 714Q96 745 123 758T187 771Q234 771 260 757T284 708Q271 547 262 376T250 41Q249 7 220 -5T149 -17Q110 -17 84 -4T59 51Q62 206 71 377T94 714ZM83 826Q45 826 16 850T-14 916Q-14 949 0 971T35 1005T79 1017Q117
1017 145 994T174 925Q174 899 162 876T128 840T83 826ZM311 821Q277 821 250 848T222 916Q222 939 233 962T265 1000T317 1016Q355 1016 374 999T400 959T407 921Q407 894 394 871T358 835T311 821Z" />
<glyph unicode="&#xd0;" horiz-adv-x="820" d="M86 314Q61 314 47 328T32 383Q32 414 47 431T86 449Q135 449 195 449T316 450T425 452Q452 453 464 438T477 385Q477 347 465 333T425 317Q376 316 316 315T196 314T86 314ZM76 35Q80 129 87 232T101 440Q106 506
109 571T113 694Q114 715 124 729T161 750Q177 753 204 756T263 761T323 765T371 766Q473 766 549 737T676 656T753 537T779 394Q779 317 750 243T666 108T533 11T357 -25Q321 -25 291 -19T234 -3Q216 -10 198 -14T153 -19Q121 -19 98 -8T76 35ZM263 149Q272 146
281 144T301 141T324 138T351 137Q386 137 426 152T501 198T558 278T580 396Q580 456 562 497T514 562T452 598T388 609Q370 609 353 608T321 604T290 598Q288 537 286 493T282 411T276 336T270 255T263 149Z" />
<glyph unicode="&#xd1;" horiz-adv-x="795" d="M240 46Q236 18 211 7T135 -5Q98 -5 74 10T53 61Q67 177 76 289T88 511T87 726Q86 761 104 775T171 789Q210 789 234 773T281 720Q291 704 304 682T335 633T373 572T420 499T476 416T540 320Q539 390 540 438T544
527T551 609T562 708Q566 746 585 763T666 780Q719 780 733 764T745 717Q737 639 731 566T720 414T712 246T708 43Q708 18 691 4T624 -10Q579 -10 555 7T505 60Q483 90 463 119T422 179T378 245T326 320T263 409Q264 359 263 313T259 222T251 135T240 46ZM526 837Q491
837 468 843T428 858T397 873T367 880Q347 880 344 848Q343 836 328 829T295 822T262 833T249 865Q252 930 283 972T372 1014Q399 1014 418 1008T453 993T484 978T519 971Q534 971 542 980T555 1005Q558 1020 573 1024T607 1024T637 1008T648 979Q638 909 603 873T526
837Z" />
<glyph unicode="&#xd2;" horiz-adv-x="812" d="M564 756Q579 747 588 737T597 713Q597 705 586 689T559 654T523 624T488 610Q469 609 455 615T415 621Q371 621 337 600T279 542T243 458T230 357Q230 308 241 268T275 200T328 156T399 140Q451 140 492 169T558
253T583 386Q583 432 577 462T561 512T538 549Q532 557 524 568T515 596Q515 607 528 628T560 672T596 710T623 726Q641 726 654 717T679 695T698 671Q742 611 759 538T777 387Q777 305 749 232T670 102T549 13T395 -20Q315 -20 255 2T152 62T85 147T47 245T35
341Q35 420 60 498T137 641T263 744T437 783Q464 783 500 778T564 756ZM445 828Q421 840 392 860T338 903T299 942Q283 963 278 982T300 1033Q326 1062 355 1065T397 1049Q408 1033 437 999T506 926Q520 913 525 892T513 848Q497 823 478 822T445 828Z" />
<glyph unicode="&#xd3;" horiz-adv-x="812" d="M564 756Q579 747 588 737T597 713Q597 705 586 689T559 654T523 624T488 610Q469 609 455 615T415 621Q371 621 337 600T279 542T243 458T230 357Q230 308 241 268T275 200T328 156T399 140Q451 140 492 169T558
253T583 386Q583 432 577 462T561 512T538 549Q532 557 524 568T515 596Q515 607 528 628T560 672T596 710T623 726Q641 726 654 717T679 695T698 671Q742 611 759 538T777 387Q777 305 749 232T670 102T549 13T395 -20Q315 -20 255 2T152 62T85 147T47 245T35
341Q35 420 60 498T137 641T263 744T437 783Q464 783 500 778T564 756ZM387 822Q366 822 346 839T325 878Q325 886 327 892T334 905Q349 928 371 956T417 1008T455 1045Q466 1054 477 1059T501 1065Q519 1065 538 1052T569 1020T582 980Q582 957 564 942Q551 932
511 905T429 839Q410 822 387 822Z" />
<glyph unicode="&#xd4;" horiz-adv-x="812" d="M564 756Q579 747 588 737T597 713Q597 705 586 689T559 654T523 624T488 610Q469 609 455 615T415 621Q371 621 337 600T279 542T243 458T230 357Q230 308 241 268T275 200T328 156T399 140Q451 140 492 169T558
253T583 386Q583 432 577 462T561 512T538 549Q532 557 524 568T515 596Q515 607 528 628T560 672T596 710T623 726Q641 726 654 717T679 695T698 671Q742 611 759 538T777 387Q777 305 749 232T670 102T549 13T395 -20Q315 -20 255 2T152 62T85 147T47 245T35
341Q35 420 60 498T137 641T263 744T437 783Q464 783 500 778T564 756ZM344 837Q332 823 312 814T266 821Q241 837 237 854T243 892Q256 914 277 936T322 979T362 1014Q384 1032 403 1041T446 1051Q472 1051 486 1039T514 1012Q534 988 558 966T616 911Q630 898
631 876T612 832Q593 810 574 812T542 822Q518 838 486 865T433 913Q416 901 401 890T373 867T344 837Z" />
<glyph unicode="&#xd5;" horiz-adv-x="812" d="M564 756Q579 747 588 737T597 713Q597 705 586 689T559 654T523 624T488 610Q469 609 455 615T415 621Q371 621 337 600T279 542T243 458T230 357Q230 308 241 268T275 200T328 156T399 140Q451 140 492 169T558
253T583 386Q583 432 577 462T561 512T538 549Q532 557 524 568T515 596Q515 607 528 628T560 672T596 710T623 726Q641 726 654 717T679 695T698 671Q742 611 759 538T777 387Q777 305 749 232T670 102T549 13T395 -20Q315 -20 255 2T152 62T85 147T47 245T35
341Q35 420 60 498T137 641T263 744T437 783Q464 783 500 778T564 756ZM523 837Q488 837 465 843T425 858T394 873T364 880Q344 880 341 848Q340 836 325 829T292 822T259 833T246 865Q249 930 280 972T369 1014Q396 1014 415 1008T450 993T481 978T516 971Q531
971 539 980T552 1005Q555 1020 570 1024T604 1024T634 1008T645 979Q635 909 600 873T523 837Z" />
<glyph unicode="&#xd6;" horiz-adv-x="812" d="M564 756Q579 747 588 737T597 713Q597 705 586 689T559 654T523 624T488 610Q469 609 455 615T415 621Q371 621 337 600T279 542T243 458T230 357Q230 308 241 268T275 200T328 156T399 140Q451 140 492 169T558
253T583 386Q583 432 577 462T561 512T538 549Q532 557 524 568T515 596Q515 607 528 628T560 672T596 710T623 726Q641 726 654 717T679 695T698 671Q742 611 759 538T777 387Q777 305 749 232T670 102T549 13T395 -20Q315 -20 255 2T152 62T85 147T47 245T35
341Q35 420 60 498T137 641T263 744T437 783Q464 783 500 778T564 756ZM317 826Q279 826 250 850T220 916Q220 949 234 971T269 1005T313 1017Q351 1017 379 994T408 925Q408 899 396 876T362 840T317 826ZM545 821Q511 821 484 848T456 916Q456 939 467 962T499
1000T551 1016Q589 1016 608 999T634 959T641 921Q641 894 628 871T592 835T545 821Z" />
<glyph unicode="&#xd7;" horiz-adv-x="650" d="M541 208Q558 190 554 166T527 120Q503 95 477 93T430 110Q389 153 351 192T279 266T213 333T156 389T109 435Q90 453 94 478T122 527Q145 548 171 550T216 536Q234 520 266 489T337 418T416 338T488 263T541 208ZM216
112Q196 93 172 95T125 119Q100 143 98 167T114 209Q132 228 165 261T239 334T320 413T392 483T441 531Q461 551 485 549T532 524Q555 500 557 477T541 436Q526 421 495 390T425 319T345 240T270 166T216 112Z" />
<glyph unicode="&#xd8;" horiz-adv-x="812" d="M564 756Q579 747 588 737T597 713Q597 705 586 689T559 654T523 624T488 610Q469 609 455 615T415 621Q371 621 337 600T279 542T243 458T230 357Q230 308 241 268T275 200T328 156T399 140Q451 140 492 169T558
253T583 386Q583 432 577 462T561 512T538 549Q532 557 524 568T515 596Q515 607 528 628T560 672T596 710T623 726Q641 726 654 717T679 695T698 671Q742 611 759 538T777 387Q777 305 749 232T670 102T549 13T395 -20Q315 -20 255 2T152 62T85 147T47 245T35
341Q35 420 60 498T137 641T263 744T437 783Q464 783 500 778T564 756ZM176 -38Q168 -48 154 -58T118 -69T67 -47Q35 -22 36 8T57 64Q150 178 244 302T434 554T624 808Q633 820 648 829T685 837T732 817Q750 805 756 787T760 750T748 720Q606 530 463 337T176 -38Z"
/>
<glyph unicode="&#xd9;" horiz-adv-x="756" d="M83 700Q90 731 109 750T186 769Q239 769 262 750T281 696Q279 684 277 656T272 589T267 508T265 427Q265 337 275 277T311 188T386 158Q418 158 442 173T483 223T508 313T516 451Q516 527 510 591T501 711Q499 742
517 759T586 776Q629 776 651 766T682 739T692 703Q695 674 697 647T702 588T705 518T706 427Q706 338 689 260T633 121T534 26T383 -8Q295 -8 238 15T146 79T95 177T71 299Q67 338 65 389T63 496T69 605T83 700ZM416 830Q392 842 363 862T309 905T270 944Q254
965 249 984T271 1035Q297 1064 326 1067T368 1051Q379 1035 408 1001T477 928Q491 915 496 894T484 850Q468 825 449 824T416 830Z" />
<glyph unicode="&#xda;" horiz-adv-x="756" d="M83 700Q90 731 109 750T186 769Q239 769 262 750T281 696Q279 684 277 656T272 589T267 508T265 427Q265 337 275 277T311 188T386 158Q418 158 442 173T483 223T508 313T516 451Q516 527 510 591T501 711Q499 742
517 759T586 776Q629 776 651 766T682 739T692 703Q695 674 697 647T702 588T705 518T706 427Q706 338 689 260T633 121T534 26T383 -8Q295 -8 238 15T146 79T95 177T71 299Q67 338 65 389T63 496T69 605T83 700ZM358 824Q337 824 317 841T296 880Q296 888 298
894T305 907Q320 930 342 958T388 1010T426 1047Q437 1056 448 1061T472 1067Q490 1067 509 1054T540 1022T553 982Q553 959 535 944Q522 934 482 907T400 841Q381 824 358 824Z" />
<glyph unicode="&#xdb;" horiz-adv-x="756" d="M83 700Q90 731 109 750T186 769Q239 769 262 750T281 696Q279 684 277 656T272 589T267 508T265 427Q265 337 275 277T311 188T386 158Q418 158 442 173T483 223T508 313T516 451Q516 527 510 591T501 711Q499 742
517 759T586 776Q629 776 651 766T682 739T692 703Q695 674 697 647T702 588T705 518T706 427Q706 338 689 260T633 121T534 26T383 -8Q295 -8 238 15T146 79T95 177T71 299Q67 338 65 389T63 496T69 605T83 700ZM315 839Q303 825 283 816T237 823Q212 839 208
856T214 894Q227 916 248 938T293 981T333 1016Q355 1034 374 1043T417 1053Q443 1053 457 1041T485 1014Q505 990 529 968T587 913Q601 900 602 878T583 834Q564 812 545 814T513 824Q489 840 457 867T404 915Q387 903 372 892T344 869T315 839Z" />
<glyph unicode="&#xdc;" horiz-adv-x="756" d="M83 700Q90 731 109 750T186 769Q239 769 262 750T281 696Q279 684 277 656T272 589T267 508T265 427Q265 337 275 277T311 188T386 158Q418 158 442 173T483 223T508 313T516 451Q516 527 510 591T501 711Q499 742
517 759T586 776Q629 776 651 766T682 739T692 703Q695 674 697 647T702 588T705 518T706 427Q706 338 689 260T633 121T534 26T383 -8Q295 -8 238 15T146 79T95 177T71 299Q67 338 65 389T63 496T69 605T83 700ZM288 828Q250 828 221 852T191 918Q191 951 205
973T240 1007T284 1019Q322 1019 350 996T379 927Q379 901 367 878T333 842T288 828ZM516 823Q482 823 455 850T427 918Q427 941 438 964T470 1002T522 1018Q560 1018 579 1001T605 961T612 923Q612 896 599 873T563 837T516 823Z" />
<glyph unicode="&#xdd;" horiz-adv-x="646" d="M25 687Q15 706 25 727T61 763T120 778Q160 778 177 766T204 736Q216 712 231 684T261 626T289 571T313 527T326 503Q364 562 391 603T444 680T499 752Q510 766 523 773T560 780Q600 780 624 760T655 712T645 663Q604
612 566 562T490 459T409 340Q410 262 401 187T385 49Q382 18 358 2T278 -14Q229 -14 210 7T194 57Q201 121 210 187T218 330Q170 431 121 514T25 687ZM299 822Q278 822 258 839T237 878Q237 886 239 892T246 905Q261 928 283 956T329 1008T367 1045Q378 1054 389
1059T413 1065Q431 1065 450 1052T481 1020T494 980Q494 957 476 942Q463 932 423 905T341 839Q322 822 299 822Z" />
<glyph unicode="&#xde;" horiz-adv-x="641" d="M83 706Q89 736 113 750T167 765Q205 765 235 748T266 693Q266 684 262 674T256 646Q249 586 247 536T245 426Q245 382 246 330T247 225T245 122T235 33Q231 12 216 2T182 -12T144 -16Q120 -16 98 -10T64 10T53 49Q60
114 62 186T64 323T64 432Q64 509 67 577T83 706ZM173 477Q142 471 127 491T111 541Q111 578 127 593T173 616Q190 620 220 622T281 624Q340 624 398 613T505 574T582 502T612 389Q612 320 586 273T514 198T406 156T275 143Q230 143 208 143T178 143T164 143Q148
142 136 164T124 210Q124 244 149 264T215 284Q231 284 247 284T279 282T308 281Q359 281 390 309T421 388Q421 437 390 461T298 486Q270 486 234 484T173 477Z" />
<glyph unicode="&#xdf;" horiz-adv-x="772" d="M246 -161Q254 -192 242 -211T206 -238T153 -247Q111 -247 86 -233T53 -184Q39 -116 33 -51T27 99Q27 158 32 228T49 371T80 512T127 636Q153 689 195 733T300 805T448 832Q513 832 560 813T638 762T683 693T698
617Q698 578 685 547T649 491T594 443T528 400L534 436Q598 429 641 398T706 318T728 212Q728 144 686 91T570 7T399 -19Q366 -17 348 0T330 61Q330 108 349 128T399 147Q443 144 474 154T523 186T540 237Q540 261 526 282T478 313T385 316Q355 312 334 327T312
389Q312 422 322 438T356 465Q443 503 480 539T518 617Q518 635 512 647T491 665T451 672Q425 672 395 661T335 620T280 535Q267 505 256 460T235 359T222 240T217 112Q217 26 223 -36T246 -161Z" />
<glyph unicode="&#xe0;" horiz-adv-x="692" d="M30 234Q30 295 48 352T100 455T183 528T297 555Q339 555 368 542T419 505Q424 527 436 542T484 558Q525 558 556 539T586 492Q585 466 576 419T561 327Q559 313 556 292T551 251T546 215Q545 201 545 180T549 144T568
128Q575 128 580 131T591 138Q602 145 609 149T629 153Q643 153 655 143T674 114T674 75Q668 56 645 37T591 4T531 -9Q502 -9 478 3T436 37T412 87Q387 49 343 23T245 -3Q178 -3 130 28T56 112T30 234ZM221 242Q221 215 226 192T244 155T278 141Q295 141 309 149T334
173T351 208Q358 231 363 254T373 302T380 349T384 396Q373 407 358 413T323 420Q299 420 280 407T248 369T228 313T221 242ZM424 638Q405 616 386 617T354 628Q332 644 306 668T258 717T225 761Q212 784 210 803T239 851Q268 877 297 877T337 854Q345 836 369
798T428 717Q440 702 442 681T424 638Z" />
<glyph unicode="&#xe1;" horiz-adv-x="692" d="M30 234Q30 295 48 352T100 455T183 528T297 555Q339 555 368 542T419 505Q424 527 436 542T484 558Q525 558 556 539T586 492Q585 466 576 419T561 327Q559 313 556 292T551 251T546 215Q545 201 545 180T549 144T568
128Q575 128 580 131T591 138Q602 145 609 149T629 153Q643 153 655 143T674 114T674 75Q668 56 645 37T591 4T531 -9Q502 -9 478 3T436 37T412 87Q387 49 343 23T245 -3Q178 -3 130 28T56 112T30 234ZM221 242Q221 215 226 192T244 155T278 141Q295 141 309 149T334
173T351 208Q358 231 363 254T373 302T380 349T384 396Q373 407 358 413T323 420Q299 420 280 407T248 369T228 313T221 242ZM375 641Q363 626 343 619T297 625Q272 639 268 656T270 689Q281 715 298 746T333 805T365 848Q383 868 405 875T462 860Q494 838 500
811T490 766Q479 754 445 720T375 641Z" />
<glyph unicode="&#xe2;" horiz-adv-x="692" d="M30 234Q30 295 48 352T100 455T183 528T297 555Q339 555 368 542T419 505Q424 527 436 542T484 558Q525 558 556 539T586 492Q585 466 576 419T561 327Q559 313 556 292T551 251T546 215Q545 201 545 180T549 144T568
128Q575 128 580 131T591 138Q602 145 609 149T629 153Q643 153 655 143T674 114T674 75Q668 56 645 37T591 4T531 -9Q502 -9 478 3T436 37T412 87Q387 49 343 23T245 -3Q178 -3 130 28T56 112T30 234ZM221 242Q221 215 226 192T244 155T278 141Q295 141 309 149T334
173T351 208Q358 231 363 254T373 302T380 349T384 396Q373 407 358 413T323 420Q299 420 280 407T248 369T228 313T221 242ZM263 631Q252 616 232 608T185 615Q160 631 156 648T162 686Q175 708 196 736T241 789T279 830Q298 849 314 858T355 867Q381 867 396
857T423 828Q435 809 458 776T514 707Q527 693 528 671T510 628Q491 606 472 607T440 618Q417 635 392 662T344 713Q333 705 319 692T291 664T263 631Z" />
<glyph unicode="&#xe3;" horiz-adv-x="692" d="M30 234Q30 295 48 352T100 455T183 528T297 555Q339 555 368 542T419 505Q424 527 436 542T484 558Q525 558 556 539T586 492Q585 466 576 419T561 327Q559 313 556 292T551 251T546 215Q545 201 545 180T549 144T568
128Q575 128 580 131T591 138Q602 145 609 149T629 153Q643 153 655 143T674 114T674 75Q668 56 645 37T591 4T531 -9Q502 -9 478 3T436 37T412 87Q387 49 343 23T245 -3Q178 -3 130 28T56 112T30 234ZM221 242Q221 215 226 192T244 155T278 141Q295 141 309 149T334
173T351 208Q358 231 363 254T373 302T380 349T384 396Q373 407 358 413T323 420Q299 420 280 407T248 369T228 313T221 242ZM446 634Q411 634 388 640T348 655T317 670T287 677Q267 677 264 645Q263 633 248 626T215 619T182 630T169 662Q172 727 203 769T292
811Q319 811 338 805T373 790T404 775T439 768Q454 768 462 777T475 802Q478 817 493 821T527 821T557 805T568 776Q558 706 523 670T446 634Z" />
<glyph unicode="&#xe4;" horiz-adv-x="692" d="M30 234Q30 295 48 352T100 455T183 528T297 555Q339 555 368 542T419 505Q424 527 436 542T484 558Q525 558 556 539T586 492Q585 466 576 419T561 327Q559 313 556 292T551 251T546 215Q545 201 545 180T549 144T568
128Q575 128 580 131T591 138Q602 145 609 149T629 153Q643 153 655 143T674 114T674 75Q668 56 645 37T591 4T531 -9Q502 -9 478 3T436 37T412 87Q387 49 343 23T245 -3Q178 -3 130 28T56 112T30 234ZM221 242Q221 215 226 192T244 155T278 141Q295 141 309 149T334
173T351 208Q358 231 363 254T373 302T380 349T384 396Q373 407 358 413T323 420Q299 420 280 407T248 369T228 313T221 242ZM232 624Q194 624 165 648T135 714Q135 747 149 769T184 803T228 815Q266 815 294 792T323 723Q323 697 311 674T277 638T232 624ZM460
619Q426 619 399 646T371 714Q371 737 382 760T414 798T466 814Q504 814 523 797T549 757T556 719Q556 692 543 669T507 633T460 619Z" />
<glyph unicode="&#xe5;" horiz-adv-x="692" d="M30 234Q30 295 48 352T100 455T183 528T297 555Q339 555 368 542T419 505Q424 527 436 542T484 558Q525 558 556 539T586 492Q585 466 576 419T561 327Q559 313 556 292T551 251T546 215Q545 201 545 180T549 144T568
128Q575 128 580 131T591 138Q602 145 609 149T629 153Q643 153 655 143T674 114T674 75Q668 56 645 37T591 4T531 -9Q502 -9 478 3T436 37T412 87Q387 49 343 23T245 -3Q178 -3 130 28T56 112T30 234ZM221 242Q221 215 226 192T244 155T278 141Q295 141 309 149T334
173T351 208Q358 231 363 254T373 302T380 349T384 396Q373 407 358 413T323 420Q299 420 280 407T248 369T228 313T221 242ZM327 607Q251 607 213 647T177 745Q179 779 199 810T257 862T345 883Q398 883 433 864T485 813T503 745Q503 687 461 647T327 607ZM337
703Q356 703 367 714T378 745Q378 763 369 775T342 787Q326 787 315 775T303 745Q303 726 312 715T337 703Z" />
<glyph unicode="&#xe6;" horiz-adv-x="846" d="M155 360Q148 348 138 344T118 339Q102 339 84 348T52 373T39 404Q39 415 44 426T59 448Q97 495 145 522T261 550Q340 550 391 509T467 391L445 172Q406 105 359 65T263 6T164 -12Q130 -12 97 3T43 47T21 118Q21
158 38 196T92 263T189 309T333 320Q334 327 334 331T334 337Q334 362 321 378T287 403T245 412Q231 412 215 407T183 391T155 360ZM181 137Q181 126 188 120T207 113Q221 113 240 120T281 148T326 205Q269 209 238 198T194 170T181 137ZM514 311Q551 311 582 322T633
353T653 401Q653 410 650 416T639 426T621 430Q611 430 596 422T567 392T544 335T534 242Q534 201 547 177T579 143T612 133Q644 133 668 144T711 177Q722 190 730 193T746 197Q765 197 783 187T813 159T826 122Q826 100 810 79T777 47Q740 16 696 5T609 -7Q561
-7 519 14T443 73T390 160L397 364Q413 420 451 461T540 526T647 550Q689 550 727 535T789 489T813 412Q813 361 785 321T711 252T612 208T507 193Q489 193 472 194T444 198L457 315Q466 314 481 313T514 311Z" />
<glyph unicode="&#xe7;" horiz-adv-x="560" d="M279 -4Q214 -4 167 19T88 82T42 171T27 271Q27 329 47 380T104 471T195 532T313 555Q351 555 385 546T451 515T511 454Q518 444 521 434T524 413Q524 395 510 381T478 357T443 348Q430 348 421 355T400 375Q382
398 362 407T318 417Q295 417 277 406T245 375T224 328T216 267Q216 241 224 212T252 161T300 140Q338 140 363 159T414 206Q423 216 431 220T451 224Q467 224 485 213T517 184T531 149Q531 142 529 132T516 109Q469 52 404 24T279 -4ZM275 -260Q249 -260 222 -255T172
-238Q159 -231 157 -220T158 -196Q162 -182 171 -169T201 -161Q210 -163 226 -167T257 -171Q273 -171 281 -164T289 -144Q289 -126 278 -120T249 -118Q236 -121 224 -118T206 -108Q202 -100 203 -89T210 -63L238 6H331L296 -74L260 -54Q314 -43 347 -53T395 -89T410
-150Q410 -199 375 -229T275 -260Z" />
<glyph unicode="&#xe8;" horiz-adv-x="546" d="M290 -5Q217 -5 166 18T84 79T38 164T23 260Q23 313 43 365T102 460T192 529T310 555Q369 555 408 538T467 488T487 410Q487 361 468 326T411 265Q368 236 320 222T212 202Q221 184 233 170T264 146T308 137Q342
137 368 153T415 191Q428 205 437 209T454 213Q468 213 483 202T512 176T528 144Q532 128 525 113T510 90Q473 50 416 23T290 -5ZM204 319Q227 321 239 324T273 336Q294 344 309 361T324 402Q324 411 320 418T308 429T288 434Q272 434 258 422T232 392T214 355T204
319ZM383 638Q364 616 345 617T313 628Q291 644 265 668T217 717T184 761Q171 784 169 803T198 851Q227 877 256 877T296 854Q304 836 328 798T387 717Q399 702 401 681T383 638Z" />
<glyph unicode="&#xe9;" horiz-adv-x="546" d="M290 -5Q217 -5 166 18T84 79T38 164T23 260Q23 313 43 365T102 460T192 529T310 555Q369 555 408 538T467 488T487 410Q487 361 468 326T411 265Q368 236 320 222T212 202Q221 184 233 170T264 146T308 137Q342
137 368 153T415 191Q428 205 437 209T454 213Q468 213 483 202T512 176T528 144Q532 128 525 113T510 90Q473 50 416 23T290 -5ZM204 319Q227 321 239 324T273 336Q294 344 309 361T324 402Q324 411 320 418T308 429T288 434Q272 434 258 422T232 392T214 355T204
319ZM334 641Q322 626 302 619T256 625Q231 639 227 656T229 689Q240 715 257 746T292 805T324 848Q342 868 364 875T421 860Q453 838 459 811T449 766Q438 754 404 720T334 641Z" />
<glyph unicode="&#xea;" horiz-adv-x="546" d="M290 -5Q217 -5 166 18T84 79T38 164T23 260Q23 313 43 365T102 460T192 529T310 555Q369 555 408 538T467 488T487 410Q487 361 468 326T411 265Q368 236 320 222T212 202Q221 184 233 170T264 146T308 137Q342
137 368 153T415 191Q428 205 437 209T454 213Q468 213 483 202T512 176T528 144Q532 128 525 113T510 90Q473 50 416 23T290 -5ZM204 319Q227 321 239 324T273 336Q294 344 309 361T324 402Q324 411 320 418T308 429T288 434Q272 434 258 422T232 392T214 355T204
319ZM222 631Q211 616 191 608T144 615Q119 631 115 648T121 686Q134 708 155 736T200 789T238 830Q257 849 273 858T314 867Q340 867 355 857T382 828Q394 809 417 776T473 707Q486 693 487 671T469 628Q450 606 431 607T399 618Q376 635 351 662T303 713Q292
705 278 692T250 664T222 631Z" />
<glyph unicode="&#xeb;" horiz-adv-x="546" d="M290 -5Q217 -5 166 18T84 79T38 164T23 260Q23 313 43 365T102 460T192 529T310 555Q369 555 408 538T467 488T487 410Q487 361 468 326T411 265Q368 236 320 222T212 202Q221 184 233 170T264 146T308 137Q342
137 368 153T415 191Q428 205 437 209T454 213Q468 213 483 202T512 176T528 144Q532 128 525 113T510 90Q473 50 416 23T290 -5ZM204 319Q227 321 239 324T273 336Q294 344 309 361T324 402Q324 411 320 418T308 429T288 434Q272 434 258 422T232 392T214 355T204
319ZM191 624Q153 624 124 648T94 714Q94 747 108 769T143 803T187 815Q225 815 253 792T282 723Q282 697 270 674T236 638T191 624ZM419 619Q385 619 358 646T330 714Q330 737 341 760T373 798T425 814Q463 814 482 797T508 757T515 719Q515 692 502 669T466 633T419
619Z" />
<glyph unicode="&#xec;" horiz-adv-x="301" d="M73 489Q73 511 87 525T122 547T163 555Q212 555 235 539T258 490Q258 423 254 370T245 268T236 166T229 44Q228 13 204 -1T136 -15Q96 -15 76 -5T49 20T42 50Q42 59 45 94T52 179T62 287T70 397T73 489ZM244 638Q225
616 206 617T174 628Q152 644 126 668T78 717T45 761Q32 784 30 803T59 851Q88 877 117 877T157 854Q165 836 189 798T248 717Q260 702 262 681T244 638Z" />
<glyph unicode="&#xed;" horiz-adv-x="301" d="M73 489Q73 511 87 525T122 547T163 555Q212 555 235 539T258 490Q258 423 254 370T245 268T236 166T229 44Q228 13 204 -1T136 -15Q96 -15 76 -5T49 20T42 50Q42 59 45 94T52 179T62 287T70 397T73 489ZM195 641Q183
626 163 619T117 625Q92 639 88 656T90 689Q101 715 118 746T153 805T185 848Q203 868 225 875T282 860Q314 838 320 811T310 766Q299 754 265 720T195 641Z" />
<glyph unicode="&#xee;" horiz-adv-x="301" d="M73 489Q73 511 87 525T122 547T163 555Q212 555 235 539T258 490Q258 423 254 370T245 268T236 166T229 44Q228 13 204 -1T136 -15Q96 -15 76 -5T49 20T42 50Q42 59 45 94T52 179T62 287T70 397T73 489ZM83 631Q72
616 52 608T5 615Q-20 631 -24 648T-18 686Q-5 708 16 736T61 789T99 830Q118 849 134 858T175 867Q201 867 216 857T243 828Q255 809 278 776T334 707Q347 693 348 671T330 628Q311 606 292 607T260 618Q237 635 212 662T164 713Q153 705 139 692T111 664T83 631Z"
/>
<glyph unicode="&#xef;" horiz-adv-x="301" d="M73 489Q73 511 87 525T122 547T163 555Q212 555 235 539T258 490Q258 423 254 370T245 268T236 166T229 44Q228 13 204 -1T136 -15Q96 -15 76 -5T49 20T42 50Q42 59 45 94T52 179T62 287T70 397T73 489ZM52 624Q14
624 -15 648T-45 714Q-45 747 -31 769T4 803T48 815Q86 815 114 792T143 723Q143 697 131 674T97 638T52 624ZM280 619Q246 619 219 646T191 714Q191 737 202 760T234 798T286 814Q324 814 343 797T369 757T376 719Q376 692 363 669T327 633T280 619Z" />
<glyph unicode="&#xf0;" horiz-adv-x="683" d="M526 231Q489 260 439 284T338 309Q302 309 276 298T236 262T222 200Q222 179 232 160T262 129T311 117Q335 117 361 124T411 151T448 205T462 291Q462 361 448 415T405 514T330 604T219 699Q212 705 208 713T204
732Q204 749 213 768T239 800T277 814Q289 814 301 809T323 797Q391 755 450 701T555 581T627 443T653 291Q653 223 631 166T564 66T457 1T313 -23Q224 -23 161 3T65 80T31 200Q31 274 69 330T177 417T338 449Q394 449 441 434T529 380L526 231ZM476 797Q490 806
502 806Q517 806 531 795T553 768T562 737Q562 722 548 711L273 498Q260 488 246 488Q231 488 217 499T194 527T185 558Q185 574 198 584Q239 615 288 652T387 728T476 797Z" />
<glyph unicode="&#xf1;" horiz-adv-x="621" d="M64 510Q69 540 91 551T159 563Q202 563 219 547T237 515Q237 506 235 494T232 467T230 433Q240 457 257 485T307 532T397 552Q485 552 529 489T574 322Q574 269 567 223T553 134T546 47Q546 25 523 6T448 -13Q398
-13 380 6T361 53Q361 97 369 133T385 208T393 297Q393 331 388 351T372 380T344 390Q326 390 311 378T282 345T259 299T240 247Q244 192 245 138T243 42Q242 20 221 3T150 -14Q106 -14 85 -2T58 29T52 71Q52 106 55 145T66 221Q64 275 62 319T59 399T59 462T64
510ZM424 634Q389 634 366 640T326 655T295 670T265 677Q245 677 242 645Q241 633 226 626T193 619T160 630T147 662Q150 727 181 769T270 811Q297 811 316 805T351 790T382 775T417 768Q432 768 440 777T453 802Q456 817 471 821T505 821T535 805T546 776Q536
706 501 670T424 634Z" />
<glyph unicode="&#xf2;" horiz-adv-x="598" d="M314 555Q338 555 372 550T438 536T485 513Q533 476 555 416T578 287Q578 232 563 180T515 85T434 17T316 -8Q237 -8 181 14T90 75T39 164T23 271Q23 325 40 376T92 467T183 531T314 555ZM212 276Q212 242 221 209T252
155T308 133Q331 133 347 146T372 182T385 229T389 278Q389 334 376 364T341 410Q331 413 324 414T307 415Q279 415 260 403T231 371T217 327T212 276ZM391 638Q372 616 353 617T321 628Q299 644 273 668T225 717T192 761Q179 784 177 803T206 851Q235 877 264
877T304 854Q312 836 336 798T395 717Q407 702 409 681T391 638Z" />
<glyph unicode="&#xf3;" horiz-adv-x="598" d="M314 555Q338 555 372 550T438 536T485 513Q533 476 555 416T578 287Q578 232 563 180T515 85T434 17T316 -8Q237 -8 181 14T90 75T39 164T23 271Q23 325 40 376T92 467T183 531T314 555ZM212 276Q212 242 221 209T252
155T308 133Q331 133 347 146T372 182T385 229T389 278Q389 334 376 364T341 410Q331 413 324 414T307 415Q279 415 260 403T231 371T217 327T212 276ZM342 641Q330 626 310 619T264 625Q239 639 235 656T237 689Q248 715 265 746T300 805T332 848Q350 868 372
875T429 860Q461 838 467 811T457 766Q446 754 412 720T342 641Z" />
<glyph unicode="&#xf4;" horiz-adv-x="598" d="M314 555Q338 555 372 550T438 536T485 513Q533 476 555 416T578 287Q578 232 563 180T515 85T434 17T316 -8Q237 -8 181 14T90 75T39 164T23 271Q23 325 40 376T92 467T183 531T314 555ZM212 276Q212 242 221 209T252
155T308 133Q331 133 347 146T372 182T385 229T389 278Q389 334 376 364T341 410Q331 413 324 414T307 415Q279 415 260 403T231 371T217 327T212 276ZM230 631Q219 616 199 608T152 615Q127 631 123 648T129 686Q142 708 163 736T208 789T246 830Q265 849 281
858T322 867Q348 867 363 857T390 828Q402 809 425 776T481 707Q494 693 495 671T477 628Q458 606 439 607T407 618Q384 635 359 662T311 713Q300 705 286 692T258 664T230 631Z" />
<glyph unicode="&#xf5;" horiz-adv-x="598" d="M314 555Q338 555 372 550T438 536T485 513Q533 476 555 416T578 287Q578 232 563 180T515 85T434 17T316 -8Q237 -8 181 14T90 75T39 164T23 271Q23 325 40 376T92 467T183 531T314 555ZM212 276Q212 242 221 209T252
155T308 133Q331 133 347 146T372 182T385 229T389 278Q389 334 376 364T341 410Q331 413 324 414T307 415Q279 415 260 403T231 371T217 327T212 276ZM413 634Q378 634 355 640T315 655T284 670T254 677Q234 677 231 645Q230 633 215 626T182 619T149 630T136
662Q139 727 170 769T259 811Q286 811 305 805T340 790T371 775T406 768Q421 768 429 777T442 802Q445 817 460 821T494 821T524 805T535 776Q525 706 490 670T413 634Z" />
<glyph unicode="&#xf6;" horiz-adv-x="598" d="M314 555Q338 555 372 550T438 536T485 513Q533 476 555 416T578 287Q578 232 563 180T515 85T434 17T316 -8Q237 -8 181 14T90 75T39 164T23 271Q23 325 40 376T92 467T183 531T314 555ZM212 276Q212 242 221 209T252
155T308 133Q331 133 347 146T372 182T385 229T389 278Q389 334 376 364T341 410Q331 413 324 414T307 415Q279 415 260 403T231 371T217 327T212 276ZM199 624Q161 624 132 648T102 714Q102 747 116 769T151 803T195 815Q233 815 261 792T290 723Q290 697 278
674T244 638T199 624ZM427 619Q393 619 366 646T338 714Q338 737 349 760T381 798T433 814Q471 814 490 797T516 757T523 719Q523 692 510 669T474 633T427 619Z" />
<glyph unicode="&#xf7;" horiz-adv-x="650" d="M521 247Q480 249 428 249T322 250T218 251T134 250Q105 249 90 267T75 322Q75 357 90 376T134 397Q166 398 213 398T315 398T423 396T521 392Q550 391 565 373T580 320Q580 283 565 265T521 247ZM320 45Q284 45
261 67T238 126Q238 153 249 172T282 202T329 213Q361 213 383 191T406 132Q406 93 382 69T320 45ZM333 431Q307 431 286 441T254 472T242 518Q242 550 265 570T326 591Q365 591 391 569T418 510Q418 474 394 453T333 431Z" />
<glyph unicode="&#xf8;" horiz-adv-x="598" d="M314 555Q338 555 372 550T438 536T485 513Q533 476 555 416T578 287Q578 232 563 180T515 85T434 17T316 -8Q237 -8 181 14T90 75T39 164T23 271Q23 325 40 376T92 467T183 531T314 555ZM212 276Q212 242 221 209T252
155T308 133Q331 133 347 146T372 182T385 229T389 278Q389 334 376 364T341 410Q331 413 324 414T307 415Q279 415 260 403T231 371T217 327T212 276ZM169 -42Q153 -66 123 -68T67 -51Q34 -25 30 -1T45 52Q102 134 169 226T306 410T435 583Q449 600 473 607T532
587Q560 566 569 542T561 496Q497 416 428 323T293 135T169 -42Z" />
<glyph unicode="&#xf9;" horiz-adv-x="622" d="M222 -13Q178 -13 146 3T92 50T60 123T49 217Q49 297 57 361T77 492Q81 515 102 533T175 552Q225 552 245 532T261 479Q254 437 247 402T235 330T230 242Q230 209 234 189T248 159T275 149Q293 149 308 161T337 194T361
240T379 292Q375 348 374 402T376 497Q378 520 399 536T469 553Q514 553 534 541T561 510T567 468Q567 450 567 432T565 394T560 356T553 318Q557 211 556 148T555 39Q555 9 531 -2T460 -14Q417 -14 400 2T382 34Q382 44 384 55T388 82T389 116Q382 98 371 76T342
34T294 0T222 -13ZM403 648Q384 626 365 627T333 638Q311 654 285 678T237 727T204 771Q191 794 189 813T218 861Q247 887 276 887T316 864Q324 846 348 808T407 727Q419 712 421 691T403 648Z" />
<glyph unicode="&#xfa;" horiz-adv-x="622" d="M222 -13Q178 -13 146 3T92 50T60 123T49 217Q49 297 57 361T77 492Q81 515 102 533T175 552Q225 552 245 532T261 479Q254 437 247 402T235 330T230 242Q230 209 234 189T248 159T275 149Q293 149 308 161T337 194T361
240T379 292Q375 348 374 402T376 497Q378 520 399 536T469 553Q514 553 534 541T561 510T567 468Q567 450 567 432T565 394T560 356T553 318Q557 211 556 148T555 39Q555 9 531 -2T460 -14Q417 -14 400 2T382 34Q382 44 384 55T388 82T389 116Q382 98 371 76T342
34T294 0T222 -13ZM354 651Q342 636 322 629T276 635Q251 649 247 666T249 699Q260 725 277 756T312 815T344 858Q362 878 384 885T441 870Q473 848 479 821T469 776Q458 764 424 730T354 651Z" />
<glyph unicode="&#xfb;" horiz-adv-x="622" d="M222 -13Q178 -13 146 3T92 50T60 123T49 217Q49 297 57 361T77 492Q81 515 102 533T175 552Q225 552 245 532T261 479Q254 437 247 402T235 330T230 242Q230 209 234 189T248 159T275 149Q293 149 308 161T337 194T361
240T379 292Q375 348 374 402T376 497Q378 520 399 536T469 553Q514 553 534 541T561 510T567 468Q567 450 567 432T565 394T560 356T553 318Q557 211 556 148T555 39Q555 9 531 -2T460 -14Q417 -14 400 2T382 34Q382 44 384 55T388 82T389 116Q382 98 371 76T342
34T294 0T222 -13ZM242 641Q231 626 211 618T164 625Q139 641 135 658T141 696Q154 718 175 746T220 799T258 840Q277 859 293 868T334 877Q360 877 375 867T402 838Q414 819 437 786T493 717Q506 703 507 681T489 638Q470 616 451 617T419 628Q396 645 371 672T323
723Q312 715 298 702T270 674T242 641Z" />
<glyph unicode="&#xfc;" horiz-adv-x="622" d="M222 -13Q178 -13 146 3T92 50T60 123T49 217Q49 297 57 361T77 492Q81 515 102 533T175 552Q225 552 245 532T261 479Q254 437 247 402T235 330T230 242Q230 209 234 189T248 159T275 149Q293 149 308 161T337 194T361
240T379 292Q375 348 374 402T376 497Q378 520 399 536T469 553Q514 553 534 541T561 510T567 468Q567 450 567 432T565 394T560 356T553 318Q557 211 556 148T555 39Q555 9 531 -2T460 -14Q417 -14 400 2T382 34Q382 44 384 55T388 82T389 116Q382 98 371 76T342
34T294 0T222 -13ZM211 634Q173 634 144 658T114 724Q114 757 128 779T163 813T207 825Q245 825 273 802T302 733Q302 707 290 684T256 648T211 634ZM439 629Q405 629 378 656T350 724Q350 747 361 770T393 808T445 824Q483 824 502 807T528 767T535 729Q535 702
522 679T486 643T439 629Z" />
<glyph unicode="&#xfd;" horiz-adv-x="586" d="M73 501Q80 533 96 542T155 552Q164 552 180 549T213 538T241 519T253 488Q253 468 247 443T234 380T227 280Q227 228 231 200T244 160T271 149Q285 149 300 157T330 182T356 218V263Q356 310 358 356T367 443T383
509Q391 531 408 543T453 555Q496 555 516 546T542 519T548 479Q548 418 541 349T515 217Q516 196 517 174T520 130T522 86Q522 15 512 -52T474 -173T397 -258T271 -290Q186 -290 127 -257T42 -180Q35 -168 34 -159T32 -144Q32 -123 47 -104T83 -73T120 -61Q134
-61 144 -68T164 -89Q186 -118 209 -131T261 -144Q295 -144 314 -125T342 -58T356 69Q332 32 305 9T233 -14Q179 -14 144 7T87 67T58 159T49 275Q49 314 53 357T62 438T73 501ZM346 634Q334 619 314 612T268 618Q243 632 239 649T241 682Q252 708 269 739T304 798T336
841Q354 861 376 868T433 853Q465 831 471 804T461 759Q450 747 416 713T346 634Z" />
<glyph unicode="&#xfe;" horiz-adv-x="624" d="M134 -285Q82 -285 56 -271T33 -215Q39 -121 44 -25T54 170T63 366T71 560T79 750Q81 793 110 807T177 822Q225 822 245 805T266 768Q266 763 266 749T265 711T263 653T260 572T255 468Q283 509 322 532T405 555Q461
555 499 532T560 472T593 391T604 308Q604 249 586 192T535 88T454 14T348 -14Q319 -14 291 -6T235 18Q231 -50 230 -110T225 -222Q223 -258 198 -271T134 -285ZM318 121Q337 121 354 132T384 166T404 222T412 300Q412 320 410 337T401 367T386 387T361 395Q335
395 313 378T276 336T251 286Q250 257 248 218T244 150Q259 139 279 130T318 121Z" />
<glyph unicode="&#xff;" horiz-adv-x="586" d="M73 501Q80 533 96 542T155 552Q164 552 180 549T213 538T241 519T253 488Q253 468 247 443T234 380T227 280Q227 228 231 200T244 160T271 149Q285 149 300 157T330 182T356 218V263Q356 310 358 356T367 443T383
509Q391 531 408 543T453 555Q496 555 516 546T542 519T548 479Q548 418 541 349T515 217Q516 196 517 174T520 130T522 86Q522 15 512 -52T474 -173T397 -258T271 -290Q186 -290 127 -257T42 -180Q35 -168 34 -159T32 -144Q32 -123 47 -104T83 -73T120 -61Q134
-61 144 -68T164 -89Q186 -118 209 -131T261 -144Q295 -144 314 -125T342 -58T356 69Q332 32 305 9T233 -14Q179 -14 144 7T87 67T58 159T49 275Q49 314 53 357T62 438T73 501ZM203 617Q165 617 136 641T106 707Q106 740 120 762T155 796T199 808Q237 808 265 785T294
716Q294 690 282 667T248 631T203 617ZM431 612Q397 612 370 639T342 707Q342 730 353 753T385 791T437 807Q475 807 494 790T520 750T527 712Q527 685 514 662T478 626T431 612Z" />
<glyph unicode="&#x2013;" horiz-adv-x="524" d="M110 235Q79 232 64 252T48 299Q48 343 65 360T110 380Q150 384 194 385T280 388Q337 390 380 389T436 387Q461 386 476 370T491 325Q491 288 477 265T436 242Q425 243 383 244T285 243Q242 243 197 241T110 235Z" />
<glyph unicode="&#x2014;" horiz-adv-x="1020" d="M100 226Q69 223 54 246T38 297Q38 341 55 354T100 371Q120 373 154 374T226 376T299 378T354 379Q392 380 478 380T682 382T935 387Q960 388 976 368T992 319Q992 282 977 263T935 242Q801 239 684 238T481 236T359
234Q338 234 303 233T229 232T156 230T100 226Z" />
<glyph unicode="&#x2018;" horiz-adv-x="214" d="M173 641Q184 622 178 606T154 579T116 565T75 568T45 593Q18 642 20 684T44 768T98 857Q112 877 133 879T172 871T199 843T196 806Q163 752 157 716T173 641Z" />
<glyph unicode="&#x2019;" horiz-adv-x="214" d="M54 794Q41 818 51 837T86 866T135 875T175 853Q206 814 208 768T190 672T135 576Q121 557 99 555T58 562T29 587T30 618Q67 672 71 714T54 794Z" />
<glyph unicode="&#x201a;" horiz-adv-x="222" d="M32 42Q19 66 29 85T64 114T113 123T153 101Q184 62 186 16T168 -80T113 -176Q99 -195 77 -197T36 -190T7 -165T8 -134Q45 -80 49 -38T32 42Z" />
<glyph unicode="&#x201c;" horiz-adv-x="409" d="M230 597Q209 649 213 690T239 770T293 857Q307 877 328 879T367 871T394 843T391 806Q369 770 358 743T347 692T358 641Q368 616 354 598T314 571T264 568T230 597ZM45 602Q18 651 20 693T44 777T98 866Q112 886
133 888T172 880T199 852T196 815Q163 761 157 725T173 650Q184 631 178 615T154 588T116 574T75 577T45 602Z" />
<glyph unicode="&#x201d;" horiz-adv-x="397" d="M316 576Q302 557 280 555T239 562T210 587T211 618Q248 672 254 714T239 794Q226 817 237 836T271 865T320 874T360 853Q391 814 392 768T372 672T316 576ZM134 586Q121 566 100 564T60 570T30 596T29 628Q58
682 62 719T53 794Q43 820 55 839T91 869T137 876T174 853Q200 814 200 770T182 680T134 586Z" />
<glyph unicode="&#x201e;" horiz-adv-x="405" d="M294 -171Q280 -190 258 -192T217 -185T188 -160T189 -129Q226 -75 232 -33T217 47Q204 70 215 89T249 118T298 127T338 106Q369 67 370 21T350 -75T294 -171ZM112 -161Q99 -181 78 -183T38 -177T8 -151T7 -119Q36
-65 40 -28T31 47Q21 73 33 92T69 122T115 129T152 106Q178 67 178 23T160 -67T112 -161Z" />
<glyph unicode="&#x2022;" horiz-adv-x="482" d="M229 135Q185 135 152 158T100 219T81 299Q81 330 95 359T134 412T188 450T247 464Q262 464 288 456T340 428T385 378T403 299Q403 246 376 210T309 154T229 135Z" />
<glyph unicode="&#x2039;" horiz-adv-x="382" d="M258 -9Q242 -9 225 4T190 47Q165 87 126 133T51 216Q32 234 26 250T20 282Q20 301 30 318T64 361Q86 385 125 429T220 545Q230 559 242 565T272 571Q291 571 308 560T336 533T347 503Q347 491 342 478T329 453Q298
406 260 365T186 283Q220 246 255 203T318 122Q326 109 334 96T342 65Q342 50 330 33T299 3T258 -9Z" />
<glyph unicode="&#x203a;" horiz-adv-x="360" d="M103 -4Q86 -4 68 6T37 32T25 69Q25 80 29 90T39 109Q63 143 87 175T137 239T185 304Q172 324 158 343T130 381T100 420T70 461Q64 469 61 479T58 499Q58 516 69 533T97 562T134 574Q153 574 165 565T193 537Q204
524 223 499T263 443T303 387T330 346Q341 326 341 306Q341 287 334 271T313 238Q300 221 281 195T240 140T198 82T161 31Q150 15 136 6T103 -4Z" />
</font>
</defs>
</svg>
