<?xml version="1.0" standalone="no"?>
<!DOCTYPE svg PUBLIC "-//W3C//DTD SVG 1.1//EN" "http://www.w3.org/Graphics/SVG/1.1/DTD/svg11.dtd">
<svg xmlns="http://www.w3.org/2000/svg">
<defs >
<font id="PlaypenSans" horiz-adv-x="612" ><font-face
    font-family="Playpen Sans SemiBold"
    units-per-em="1000"
    panose-1="0 0 0 0 0 0 0 0 0 0"
    ascent="1170"
    descent="-340"
    alphabetic="0" />
<glyph unicode=" " horiz-adv-x="323" />
<glyph unicode="!" horiz-adv-x="296" d="M145 221Q109 221 95 240T82 293Q83 300 84 326T86 391T90 477T93 570T96 658T99 727Q99 753 115 765T161 778Q189 778 205 766T220 727Q218 666 216 622T213 542T210 469T208 386T206 272Q205 247 189 234T145 221ZM140
-18Q106 -17 84 8T62 66Q62 98 84 119T143 141Q176 142 197 119T218 60Q218 27 197 5T140 -18Z" />
<glyph unicode="&quot;" horiz-adv-x="442" d="M78 743Q80 763 94 778T141 793Q173 793 189 778T203 743Q201 722 197 688T188 620T181 566Q179 544 169 530T132 516Q100 516 88 530T75 566Q75 603 75 651T78 743ZM264 743Q266 763 280 778T327 793Q359 793 375
778T389 743Q387 722 383 688T374 620T367 566Q365 544 355 530T318 516Q286 516 274 530T261 566Q261 603 261 651T264 743Z" />
<glyph unicode="#" d="M181 633Q184 649 197 657T230 665Q260 665 278 650T291 608Q267 464 244 325T196 42Q193 26 180 18T147 9Q118 9 100 25T86 67Q111 211 134 350T181 633ZM412 665Q416 681 430 689T462 697Q492 697 510 682T522 639Q489 498 459 360T396
80Q392 65 379 57T347 49Q317 49 300 65T288 107Q321 250 351 387T412 665ZM71 424Q51 425 39 440T27 480Q27 503 39 518T72 532L549 512Q570 511 582 496T594 458Q594 434 582 419T548 405L71 424ZM69 153Q44 153 30 169T16 210Q17 230 26 244T55 260L509 274Q535
275 548 258T561 215Q561 205 558 194T546 175T522 166Q449 164 373 162T220 158T69 153Z" />
<glyph unicode="$" horiz-adv-x="629" d="M544 690Q578 664 577 640Q576 619 566 604T543 581T519 572Q508 572 495 579T469 595Q445 616 410 632T326 648Q286 648 259 639T217 612T202 573Q202 554 213 537T253 504T338 468Q428 438 481 404T558 330T582 240Q582
181 550 134T457 60T310 33Q263 33 221 42T144 67T82 102Q65 114 52 127T39 156Q39 173 49 189T72 216T98 227Q114 227 126 219T154 201Q171 190 197 179T253 161T308 154Q373 154 410 172T448 231Q448 253 437 271T394 306T298 347Q216 375 166 406T92 475T68
560Q68 617 98 664T187 739T329 768Q372 768 413 757T489 727T544 690ZM300 806Q301 825 304 837T318 856T346 862Q372 862 384 848T395 806Q394 746 388 665T375 493T360 311T347 136T339 -13Q339 -40 329 -54T293 -68Q265 -68 255 -54T245 -13Q246 52 252 135T265
310T280 493T293 665T300 806Z" />
<glyph unicode="%" horiz-adv-x="872" d="M676 -14Q634 -14 603 3T550 48T517 111T506 183Q506 241 527 286T594 363Q602 369 607 371T621 374Q632 374 643 366T655 340Q655 324 651 312T641 294Q625 277 616 261T604 228T601 187Q601 163 606 143T620 107T643
84T677 75Q702 75 720 89T749 128T760 188Q760 214 755 236T738 275T710 301T668 310Q662 310 655 309T639 306Q622 302 612 319T601 357Q601 382 628 391Q638 395 648 396T668 398Q715 398 750 381T808 335T843 267T855 187Q856 151 845 116T810 51T754 4T676
-14ZM199 378Q139 378 101 404T44 476T25 577Q25 613 34 651T65 721T118 772T198 792Q254 792 293 766T354 697T377 602Q378 561 367 521T333 449T277 397T199 378ZM118 575Q118 527 136 497T193 466Q226 466 246 486T275 537T284 596Q284 629 273 653T243 690T199
704Q162 704 140 669T118 575ZM643 817Q658 842 676 847T715 838Q735 827 737 810T725 769Q696 724 661 667T586 545T506 410T424 266T341 118T262 -27Q249 -52 231 -57T190 -51Q170 -40 167 -24T177 17Q221 99 266 179T355 336T440 483T519 616T588 729T643 817Z"
/>
<glyph unicode="&amp;" horiz-adv-x="797" d="M733 114Q751 106 757 93T764 66Q764 41 751 22T718 -4T675 -2Q606 30 543 71T427 155T336 233T280 290Q246 327 218 364T169 438T137 511T126 581Q126 629 155 672T236 742T350 769Q401 769 441 744T505 680T529
602Q529 556 505 515T441 435T351 357Q311 326 274 292T214 224T191 162Q191 133 214 118T279 103Q312 103 338 112T393 144T457 211Q492 253 522 296T591 384Q597 392 605 394T620 396Q637 396 654 386T682 361T694 329Q694 322 691 314T682 297Q675 287 669 279T655
262T637 238Q618 213 598 188T557 137Q529 104 501 77T439 31T365 0T267 -11Q227 -11 188 -2T118 25T69 73T50 144Q50 186 70 228T123 312T198 390T280 459Q328 495 353 518T388 560T398 599Q398 615 391 629T369 651T335 660Q315 660 298 649T269 618T258 576Q258
545 284 499T367 385Q384 365 428 326T533 242Q568 216 602 192T669 149T733 114Z" />
<glyph unicode="&apos;" horiz-adv-x="257" d="M78 743Q80 763 94 778T141 793Q173 793 189 778T203 743Q201 722 197 688T188 620T181 566Q179 544 169 530T132 516Q100 516 88 530T75 566Q75 603 75 651T78 743Z" />
<glyph unicode="(" horiz-adv-x="388" d="M222 854Q231 869 241 876T268 883Q292 883 312 867T333 828Q333 820 330 811T323 796Q255 684 223 558T190 312Q190 197 213 102T275 -75Q281 -88 283 -98T286 -117Q286 -133 276 -146T252 -166T222 -174Q207 -174 195
-167T174 -143Q144 -78 121 -10T84 135T70 297Q70 458 110 598T222 854Z" />
<glyph unicode=")" horiz-adv-x="381" d="M103 793Q99 801 97 810T95 824Q95 841 105 852T129 869T156 875Q172 875 183 866T206 836Q227 800 245 750T277 641T299 521T307 400Q307 311 295 220T259 45T197 -113Q181 -144 168 -160T131 -177Q115 -176 101 -168T79
-147T70 -125Q70 -116 73 -106T83 -81Q117 -17 139 58T173 219T185 396Q185 457 176 524T148 660T103 793Z" />
<glyph unicode="*" horiz-adv-x="507" d="M222 795Q223 816 239 826T277 837Q298 837 314 826T330 793L322 467Q321 447 305 436T267 424Q247 424 231 435T215 467L222 795ZM403 789Q409 793 416 796T430 800Q451 800 464 783T478 747Q478 733 472 724T454 707Q408
675 353 640T241 569T131 498Q125 494 118 492T104 490Q92 490 81 498T63 520T56 545Q56 568 79 583L403 789ZM111 697Q99 705 94 713T88 734Q88 755 103 773T137 791Q145 791 152 789T165 781L426 607Q437 599 442 591T448 570Q448 548 435 531T401 513Q394 513
386 516T370 524L111 697Z" />
<glyph unicode="+" horiz-adv-x="650" d="M385 131Q385 106 369 94T325 81Q297 81 280 93T263 131Q263 154 263 193T264 278T265 370T266 456T266 518Q265 543 281 555T326 568Q354 568 370 556T387 518Q388 497 388 460T389 377T388 284T387 197T385 131ZM131
265Q108 265 96 280T83 321Q83 348 95 364T131 381Q157 381 202 381T298 381T398 379T481 378T526 377Q548 377 559 362T570 320Q570 294 559 279T526 263Q520 263 488 263T407 263T306 264T207 265T131 265Z" />
<glyph unicode="," horiz-adv-x="258" d="M65 73Q64 111 81 125T127 139Q157 139 174 124T192 73Q192 31 182 -12T152 -93T105 -160Q98 -167 88 -172T65 -177Q53 -177 41 -170T20 -153T11 -131Q11 -120 16 -109T28 -89Q48 -55 56 -20T65 73Z" />
<glyph unicode="-" horiz-adv-x="471" d="M123 260Q98 259 85 274T71 316Q71 348 85 364T123 382Q139 383 171 383T239 384T306 385T348 384Q370 383 383 369T396 331Q396 304 384 283T348 263Q337 264 307 264T240 264T171 263T123 260Z" />
<glyph unicode="." horiz-adv-x="272" d="M127 -20Q93 -19 69 -1T44 50Q44 73 54 94T84 129T136 143Q176 143 194 120T213 67Q213 32 188 6T127 -20Z" />
<glyph unicode="/" horiz-adv-x="413" d="M293 805Q304 836 326 844T376 843Q399 836 408 816T405 764Q386 715 362 648T312 501T260 339T209 175T163 23T127 -102Q119 -132 96 -140T50 -143Q26 -137 15 -119T12 -69Q27 -17 48 54T94 205T145 370T198 534T249
684T293 805Z" />
<glyph unicode="0" horiz-adv-x="738" d="M377 -16Q291 -16 229 15T127 101T67 226T47 372Q47 447 66 518T126 648T226 740T368 775Q384 775 406 773T454 767T503 755Q570 712 612 645T676 500T697 346Q697 273 678 208T619 93T519 13T377 -16ZM181 380Q181 330
191 282T225 194T285 130T376 106Q432 106 472 135T534 218T556 347Q556 407 542 466T500 574T430 644Q415 649 400 651T369 653Q322 653 289 633T234 581T202 512T186 440T181 380Z" />
<glyph unicode="1" horiz-adv-x="468" d="M121 457Q113 453 105 451T87 449Q71 449 59 462T41 495T34 530Q34 546 42 555T60 571Q107 595 152 624T237 686T308 757Q317 767 326 770T349 774Q369 774 388 769T419 752T431 723Q431 713 428 703T421 681Q400 605
385 528T361 368T352 191Q352 138 353 104T357 38Q358 27 352 16T331 -3T287 -11Q256 -11 241 2T220 37T215 83Q215 167 217 239T226 378T245 511T277 649L313 594Q268 549 223 518T121 457Z" />
<glyph unicode="2" horiz-adv-x="704" d="M56 550Q60 593 83 632T143 703T228 751T332 769Q387 769 436 752T525 704T586 627T609 524Q609 464 587 411T526 309T442 220T349 143Q391 144 426 143T491 138T549 129T603 119Q635 112 650 96T660 47Q655 12 633 -1T581
-9Q532 0 468 10T329 21Q306 22 281 21T235 18T202 13Q188 1 171 -7T133 -15Q113 -15 98 -3T77 32Q71 55 78 73T105 104Q171 145 235 193T353 294T438 401T470 506Q470 551 453 584T404 635T327 653Q293 653 263 639T212 600T181 539Q178 523 164 512T118 501Q89
501 73 514T56 550Z" />
<glyph unicode="3" horiz-adv-x="657" d="M127 559Q117 559 102 566T75 588T63 628Q63 645 74 660T101 691Q155 742 205 759T306 777Q363 777 407 757T483 704T529 629T545 547Q545 501 524 463T468 398Q519 379 550 349T596 282T610 202Q610 145 581 96T491 17T338
-14Q295 -14 249 -5T160 26T80 82Q71 91 67 101T62 124Q62 140 71 156T96 182T127 193Q158 193 193 155Q202 145 222 133T271 112T333 103Q380 103 408 120T449 163T463 218Q463 262 436 292T366 331Q342 320 315 315T264 309T223 311Q202 315 188 327T173 360Q173
384 189 399T229 422Q261 433 292 436T358 435Q386 452 399 479T412 536Q412 559 404 581T381 621T345 650T297 661Q258 661 227 640T170 585Q163 575 151 567T127 559Z" />
<glyph unicode="4" horiz-adv-x="674" d="M574 175Q567 175 536 176T458 178T359 182T252 185T154 189T82 192Q51 194 39 207T27 240Q27 254 31 269T42 297T52 318Q58 332 73 367T108 449T150 549T192 652T227 742Q235 763 248 772T287 782Q318 782 339 767T361
728Q361 721 360 713T354 695Q334 643 317 601T285 520T253 444T219 364T179 272L116 313Q216 309 337 306T587 297Q616 296 628 284T640 242Q640 212 630 198T604 179T574 175ZM462 -18Q429 -18 411 -7T393 32Q394 115 397 202T406 377T419 548Q422 567 433 578T460
596T491 602Q525 602 543 586T557 537Q551 476 547 427T540 334T535 244T532 148T529 32Q529 8 514 -5T462 -18Z" />
<glyph unicode="5" horiz-adv-x="641" d="M154 723Q157 737 168 744T193 752Q236 755 256 739T274 712Q273 703 267 669T253 588T236 492T217 403L149 397Q202 444 253 462T349 481Q418 481 470 450T552 364T582 242Q582 171 550 112T460 18T320 -18Q280 -18 239
-11T161 10T95 42Q85 48 80 58T75 79Q75 92 82 109T101 138T125 151Q133 151 142 148T159 141Q183 129 207 120T258 105T315 99Q361 99 389 120T429 173T442 241Q442 271 430 299T390 345T319 364Q272 364 236 349T153 295Q142 287 131 287Q119 287 107 292T89
312T87 349Q102 417 113 478T134 600T154 723ZM116 705Q116 727 124 739T145 757T167 762Q197 761 239 761T329 762T425 765T515 772Q535 774 548 760T561 713Q561 677 547 664T506 647Q464 643 410 640T296 635T178 635Q167 636 152 640T127 660T116 705Z" />
<glyph unicode="6" horiz-adv-x="703" d="M489 787Q497 790 508 793T532 796Q556 796 574 779T592 726Q592 704 579 694T550 677Q496 656 441 622T340 541T265 431T237 292Q237 262 246 230T273 171T318 128T379 111Q423 111 455 131T506 185T524 255Q524 288
509 317T464 364T391 382Q344 382 298 367T212 322T139 250Q134 243 126 235T109 220T89 214Q68 214 53 233T38 281Q38 297 47 311T70 339T98 363Q137 395 188 425T296 474T408 494Q472 494 519 472T597 415T644 336T660 251Q660 201 640 154T582 70T493 12T380
-10Q322 -10 272 14T184 80T125 174T103 283Q103 369 133 447T217 590T339 706T489 787Z" />
<glyph unicode="7" horiz-adv-x="573" d="M88 612Q60 612 48 628T35 682Q35 714 49 730T85 747Q149 747 220 749T364 758T502 774Q525 777 538 770T557 752T563 727Q563 718 561 709T553 688Q485 564 429 452T325 232T231 9Q224 -12 205 -19T162 -27Q136 -27 122
-19T101 2T95 24Q95 30 97 38T101 51Q147 167 197 276T306 498T437 735L479 640Q411 629 348 623T221 614T88 612Z" />
<glyph unicode="8" horiz-adv-x="626" d="M52 175Q52 225 72 267T125 343T199 404Q133 442 101 487T68 586Q68 646 100 689T185 756T303 779Q377 779 430 758T512 698T541 609Q541 550 502 502T395 409Q447 380 486 348T548 277T571 191Q571 146 550 108T492 42T408
0T306 -15Q220 -13 164 12T80 79T52 175ZM193 182Q193 151 211 133T256 106T310 98Q347 98 374 111T415 144T430 188Q430 214 413 240T366 291T299 336Q259 305 236 279T203 229T193 182ZM298 472Q345 504 374 536T404 601Q404 620 391 635T355 661T299 671Q272
671 250 662T214 635T201 593Q201 555 227 525T298 472Z" />
<glyph unicode="9" horiz-adv-x="593" d="M467 491L478 377Q452 351 421 330T354 297T284 284Q209 284 156 316T75 401T47 512Q47 584 77 643T162 737T295 772Q355 772 401 748T480 684T530 593T547 490Q547 420 528 353T475 224T394 114T295 33T183 -12Q144 -19
120 2T96 59Q96 77 105 89T128 104Q186 120 237 155T328 241T390 352T413 482Q413 515 406 546T382 603T343 642T288 657Q258 657 234 640T196 593T182 529Q182 491 196 461T235 413T294 396Q327 396 360 406T422 438T467 491Z" />
<glyph unicode=":" horiz-adv-x="291" d="M163 392Q124 392 96 414T68 478Q68 505 88 526T149 548Q188 548 210 524T232 463Q232 445 222 429T197 403T163 392ZM141 -15Q105 -15 81 5T56 56Q56 93 76 117T137 141Q175 141 198 119T222 67Q222 34 198 10T141 -15Z" />
<glyph unicode=";" horiz-adv-x="291" d="M80 -180Q68 -180 56 -173T35 -156T27 -134Q27 -122 32 -110T42 -90Q60 -57 69 -21T77 73Q76 111 92 125T136 139Q166 139 184 124T203 73Q204 31 194 -13T165 -95T120 -163Q114 -170 104 -175T80 -180ZM148 385Q129 385
111 394T80 419T69 457Q69 480 78 500T106 532T157 545Q196 545 214 524T232 472Q232 437 208 411T148 385Z" />
<glyph unicode="&lt;" horiz-adv-x="650" d="M473 31Q459 31 442 40T403 63Q366 87 323 115T238 173T159 228T101 270Q88 279 82 291T76 317Q76 332 84 345T110 373Q125 385 160 408T242 462T339 526T434 590Q445 599 458 605T485 611Q498 611 510 602T531 578T539
549Q539 534 533 524T517 508Q485 487 447 463T369 413T292 363T222 317Q245 302 277 281T347 237T424 191T499 145Q512 137 520 125T528 97Q528 82 520 67T500 41T473 31Z" />
<glyph unicode="=" horiz-adv-x="650" d="M134 370Q109 371 97 386T84 426Q84 454 96 470T134 486Q166 485 216 483T323 480T432 479T521 480Q545 481 558 465T571 423Q571 398 558 383T521 365Q488 364 437 364T330 364T221 366T134 370ZM130 168Q105 168 93
183T80 224Q80 251 92 267T130 284Q156 284 200 283T295 281T394 279T475 277T517 276Q541 276 554 261T567 219Q567 194 554 178T517 162Q511 162 479 162T400 163T302 165T204 166T130 168Z" />
<glyph unicode="&gt;" horiz-adv-x="650" d="M169 33Q157 33 145 42T124 66T116 95Q116 109 121 120T138 137Q169 158 207 182T285 232T363 282T432 328Q409 344 377 364T307 408T231 455T155 500Q142 508 135 520T127 548Q127 563 134 577T154 601T180 611Q199
611 215 603T251 582Q288 558 331 529T418 471T497 418T555 376Q568 366 574 354T580 327Q580 312 572 300T545 273Q530 261 495 237T413 183T316 119T221 54Q209 46 197 40T169 33Z" />
<glyph unicode="?" horiz-adv-x="519" d="M215 192Q191 191 175 205T160 248L164 342Q166 370 180 386T230 403Q269 403 301 421T352 473T372 552Q372 590 358 615T320 654T262 668Q223 668 196 657T150 626Q140 615 131 610T110 604Q90 604 73 619T55 657Q55
666 57 673T68 692Q97 734 153 757T274 779Q340 778 389 752T467 677T495 563Q495 496 466 439T387 346T277 306L274 243Q273 216 256 204T215 192ZM209 -16Q177 -16 152 6T127 60Q129 90 148 114T202 138Q218 138 238 131T273 106T288 59Q288 31 275 15T244 -9T209
-16Z" />
<glyph unicode="@" horiz-adv-x="865" d="M347 -224Q276 -224 219 -198T119 -125T55 -21T32 103Q32 187 56 265T125 410T227 527T355 606T498 634Q584 634 646 605T749 528T809 421T829 305Q829 209 796 137T708 24T582 -17Q541 -17 511 4T468 56Q445 24 418 4T364
-17Q329 -17 306 -1T269 39T249 89T242 138Q242 192 263 238T321 318T406 372T509 391Q530 391 555 387T603 373Q622 365 631 350T641 314Q641 294 630 284T601 274Q586 276 574 280T548 289T516 293Q466 293 430 273T374 219T354 146Q354 126 358 110T373 80Q397
99 417 121T452 166Q453 183 456 201T463 236T474 269T490 296Q502 312 514 321T542 331Q569 331 585 313T593 269Q588 255 581 238T566 202T547 164Q547 142 552 125T568 98T594 88Q623 88 645 104T683 150T706 218T714 300Q714 349 698 390T652 462T582 509T492
526Q422 526 360 491T252 397T179 262T152 104Q152 60 164 20T201 -51T266 -100T361 -115Q387 -114 400 -128T414 -171Q414 -197 396 -210T347 -224Z" />
<glyph unicode="A" horiz-adv-x="780" d="M156 34Q148 8 129 -3T73 -15Q41 -15 26 -1T10 32Q10 46 14 61T26 95Q60 182 96 265T169 427T243 584T317 735Q331 763 351 776T399 789Q432 789 456 775T489 738Q493 728 508 687T545 583T593 450T645 307T696 177T738
80Q743 70 748 57T753 36Q753 14 733 -2T681 -19Q660 -19 642 -13T612 14Q580 83 551 165T494 332T443 491T397 621Q348 514 305 413T225 216T156 34ZM206 209Q191 208 175 228T159 274Q159 294 171 306T200 326T232 336Q256 342 291 345T371 348T467 344Q479 343
502 344T550 347T598 351T631 355Q656 358 672 343T688 302Q688 277 672 262T629 237T575 225T526 221Q469 221 417 221T313 219T206 209Z" />
<glyph unicode="B" horiz-adv-x="677" d="M93 722Q94 747 110 760T163 775Q179 776 195 771T222 757T233 735Q226 562 227 385T217 32Q216 13 196 2T153 -11Q117 -12 97 -2T78 33Q85 141 86 257T87 491T93 722ZM184 655V760Q204 766 238 772T329 778Q371 778 417
771T503 744T569 692T594 606Q594 556 562 506T452 423Q513 408 552 381T610 318T629 243Q629 185 596 140T507 63T387 16T258 -1Q222 -1 189 2T138 8L149 123Q172 119 197 118T244 116Q289 116 332 124T410 149T465 190T486 249Q486 276 470 296T428 329T372 350T311
357Q282 353 260 351T218 348Q178 348 157 360T135 413Q135 424 137 437T145 461T161 471Q178 470 193 469T227 467Q264 467 304 474T380 497T436 537T458 595Q458 622 439 638T389 662T323 669Q302 669 275 667T222 661T184 655Z" />
<glyph unicode="C" horiz-adv-x="759" d="M679 692Q685 688 693 678T701 653Q701 634 691 617T668 590T643 580Q631 580 621 586T603 597Q568 620 539 633T482 653T419 659Q354 659 304 626T225 529T197 370Q197 293 220 234T289 140T401 106Q441 106 477 117T546
149T608 200Q616 208 624 213T643 218Q657 218 672 209T698 184T709 150Q709 134 700 119T673 86Q621 33 547 6T395 -22Q291 -22 215 24T96 157T54 367Q54 462 81 538T158 668T274 751T423 780Q466 780 511 771T599 742T679 692Z" />
<glyph unicode="D" horiz-adv-x="794" d="M69 29Q73 128 80 231T95 440Q100 506 103 571T107 699Q108 717 117 730T147 748Q166 752 191 755T242 760T293 764T337 765Q439 765 514 735T640 653T716 534T741 394Q741 317 713 243T629 108T493 11T310 -25Q277 -25
246 -20T185 -7Q173 -12 160 -15T129 -19Q105 -19 87 -8T69 29ZM209 111Q218 108 229 106T254 103T281 100T307 99Q359 99 410 118T504 174T571 266T596 397Q596 464 574 511T515 587T435 630T352 644Q333 644 313 643T274 639T240 633Q238 572 236 520T230 420T224
324T217 224T209 111Z" />
<glyph unicode="E" horiz-adv-x="625" d="M131 -15Q120 -15 105 -13T79 0T69 34Q78 142 85 256T100 484T112 708Q114 736 125 750T166 766Q215 770 274 772T398 775T530 777Q558 777 571 765T584 725Q584 686 572 671T532 655Q485 655 448 655T379 653T316 650T249
645Q247 610 245 579T242 516T237 450Q281 456 325 459T409 463T480 462Q497 462 511 449T526 406Q526 369 511 355T480 340Q455 342 416 342T330 338T231 327Q227 270 223 218T215 111Q250 113 288 116T367 121T445 126T516 128Q539 128 551 115T562 72Q561 37
550 22T518 6Q498 6 478 6T437 5Q390 4 337 1T231 -6T131 -15Z" />
<glyph unicode="F" horiz-adv-x="583" d="M80 48Q84 89 86 146T88 265T89 383Q89 422 89 454T91 516T95 577T102 647Q96 658 92 670T87 703Q87 727 100 743T133 758Q172 757 223 756T327 753T429 752T512 754Q529 755 542 743T555 699Q555 670 544 656T517 638T483
632Q452 631 428 631T378 630T320 631T243 635Q237 580 234 529T231 428Q262 425 298 424T370 423T434 426Q454 428 467 414T482 376Q483 340 468 326T437 310Q387 307 336 307T231 312Q231 215 230 150T222 43Q218 19 203 5T151 -9Q121 -9 105 -1T84 20T80 48Z"
/>
<glyph unicode="G" horiz-adv-x="828" d="M734 677Q740 672 744 661T749 638Q749 621 740 606T717 580T692 570Q676 570 666 579T646 595Q601 627 559 641T470 656Q410 656 365 635T288 578T236 502T205 419T195 346Q195 309 208 267T248 188T315 128T408 104Q454
104 491 121T556 166T603 228T629 297Q605 297 582 297T533 298T482 298Q458 298 444 313T429 359Q429 385 444 402T484 420Q540 420 601 419T718 418Q748 418 758 399T769 355Q769 286 742 220T665 99T549 13T404 -19Q328 -19 265 10T154 90T82 207T56 348Q56
435 88 512T178 650T311 745T473 780Q539 780 606 757T734 677Z" />
<glyph unicode="H" horiz-adv-x="782" d="M99 730Q101 751 118 766T172 782Q208 782 225 767T240 730Q227 615 224 503T219 277T208 45Q207 31 200 20T178 1T138 -7Q102 -7 84 9T67 48Q75 164 76 275T82 499T99 730ZM157 325Q146 325 137 332T122 357T116 407Q116
430 129 440T158 451Q217 453 264 454T360 457T467 458T608 459Q625 459 637 448T649 417Q649 377 638 360T611 338T578 334Q537 335 483 335T350 333T157 325ZM570 721Q571 743 587 758T642 774Q678 774 695 759T712 721Q710 685 709 651T705 578Q700 439 698
305T695 32Q695 12 678 -4T625 -20Q587 -20 571 -4T554 32Q554 210 558 379T570 721Z" />
<glyph unicode="I" horiz-adv-x="319" d="M110 721Q111 747 131 758T179 770Q212 770 232 758T251 717Q236 549 227 376T215 33Q214 5 193 -6T141 -17Q113 -17 93 -5T73 38Q77 203 86 376T110 721Z" />
<glyph unicode="J" horiz-adv-x="608" d="M404 745Q410 768 427 777T476 787Q512 787 527 771T540 734Q536 702 531 656T525 556Q525 534 525 511T526 462T526 403Q526 344 522 285T503 171T461 75T385 9T265 -16Q208 -16 158 1T72 53T22 138Q17 156 22 171T40
197T67 214T93 220Q113 220 123 210T141 184Q149 168 164 150T204 118T263 105Q299 105 323 123T362 174T383 256T390 365Q390 407 390 439T389 498T388 551Q388 601 391 651T404 745Z" />
<glyph unicode="K" horiz-adv-x="715" d="M217 34Q216 9 200 -4T148 -17Q108 -17 92 -3T76 43Q82 211 86 384T92 726Q92 757 111 768T166 780Q198 780 216 769T234 731Q232 559 228 384T217 34ZM535 754Q549 766 559 770T578 775Q594 775 610 764T637 735T648
700Q648 690 645 681T630 661Q593 628 560 599T492 543T421 486T339 423Q383 380 418 336T489 250T564 172T656 107Q675 96 681 85T687 59Q687 38 676 19T648 -13T618 -26Q605 -26 594 -20Q539 8 492 46T404 129T327 222Q292 270 255 316T174 405L193 458Q255 506
313 556T426 656T535 754Z" />
<glyph unicode="L" horiz-adv-x="583" d="M103 730Q105 754 125 764T174 775Q213 775 229 761T244 720Q238 646 236 576T231 433T224 285T211 123Q259 124 297 125T367 127T431 130T496 131Q521 131 536 119T551 71Q551 31 537 17T495 2Q425 2 371 1T272 -1T190
-4T112 -5Q90 -5 78 10T65 48Q65 71 67 96T73 146T78 192Q88 333 90 471T103 730Z" />
<glyph unicode="M" horiz-adv-x="939" d="M203 37Q200 11 181 1T129 -9Q94 -9 80 5T69 49Q82 159 88 249T97 417T100 568T98 719Q97 745 117 758T173 771Q204 771 218 761T243 730Q273 674 300 624T353 525T409 423T474 305Q515 364 548 414T609 513T665 614T726
727Q736 745 751 754T796 764Q829 764 843 750T858 714Q859 640 859 574T858 441T855 295Q853 228 850 162T842 35Q840 8 823 -3T776 -14Q742 -14 726 -3T711 35L720 178Q722 219 723 254T726 324T727 396T729 477Q693 413 661 362T597 266T529 173Q518 158 502
150T464 141Q445 141 430 148T403 175Q380 215 360 250T319 320T278 394T230 482Q229 411 228 353T223 243T215 142T203 37Z" />
<glyph unicode="N" horiz-adv-x="789" d="M209 36Q206 14 187 5T134 -5Q107 -5 87 9T70 52Q84 172 93 287T106 514T105 737Q104 764 119 776T169 789Q195 789 213 779T245 742Q254 728 270 701T310 637T362 554T423 458T490 354T560 246Q559 316 560 376T566 491T575
603T587 720Q590 749 606 763T663 778Q702 778 714 764T723 723Q715 643 709 568T698 414T690 244T686 37Q686 17 672 4T622 -10Q592 -10 575 2T540 38Q503 93 474 138T418 223T364 305T307 394T238 501Q239 439 238 381T233 265T223 151T209 36Z" />
<glyph unicode="O" horiz-adv-x="809" d="M559 759Q574 752 582 742T590 718Q590 710 583 698T564 673T538 652T508 645Q492 647 474 652T427 658Q372 658 329 633T257 564T212 467T196 355Q196 302 209 256T249 176T313 122T399 103Q459 103 508 136T586 232T615
385Q615 437 607 477T585 545T557 592Q549 603 542 613T534 637Q534 647 542 662T564 692T590 716T612 726Q629 726 641 717T662 695T680 671Q722 612 740 538T758 386Q758 304 733 231T660 102T545 13T396 -20Q322 -20 266 2T169 63T102 149T64 248T52 347Q52
426 78 503T154 644T276 745T438 783Q465 783 498 778T559 759Z" />
<glyph unicode="P" horiz-adv-x="637" d="M105 728Q107 748 117 760T155 776Q169 778 193 779T243 781T290 782Q384 782 457 754T571 672T613 541Q613 481 585 436T511 361T409 316T299 301Q277 301 259 302T224 307Q221 236 219 169T213 34Q212 7 191 -4T138
-15Q103 -15 87 -2T72 39Q82 210 86 384T105 728ZM231 417Q248 414 263 412T299 410Q330 410 360 419T414 445T453 488T468 545Q468 570 458 592T428 632T376 660T303 670Q284 670 270 669T243 665Q241 627 239 589T235 509T231 417Z" />
<glyph unicode="Q" horiz-adv-x="810" d="M476 783Q495 782 508 772T522 745Q522 724 513 704T487 671T445 655Q378 653 330 628T252 563T208 472T194 369Q194 285 220 227T290 138T387 107Q431 107 472 124T547 177T599 264T619 388Q619 440 608 487T573 574T510
640Q483 659 469 676T448 712T442 748Q442 764 456 778T498 785Q561 766 610 726T693 632T745 515T763 389Q763 304 736 232T658 105T538 20T383 -11Q295 -11 232 21T129 108T69 227T50 358Q50 436 77 511T155 648T279 747T445 784Q453 784 461 784T476 783ZM394
201Q385 222 399 243T443 271Q468 279 481 275T502 261T513 240Q523 215 536 187T565 129T595 70T625 14T652 -38Q665 -67 655 -85T614 -113Q586 -124 567 -116T538 -88Q526 -65 512 -38T481 20T450 82T420 143T394 201Z" />
<glyph unicode="R" horiz-adv-x="732" d="M110 727Q112 750 126 762T170 775Q181 775 195 772T222 762T243 745T251 720L208 36Q207 8 184 -3T131 -15Q106 -15 86 -3T67 37L110 727ZM203 653Q191 651 183 658T168 677T159 702T156 723Q156 740 174 752T236 771Q259
774 283 776T340 778Q439 778 505 748T605 670T639 567Q639 524 621 485T570 413T492 357T391 325Q438 293 475 267T545 215T609 163T673 104Q685 91 689 82T694 60Q694 42 682 26T651 -1T617 -12Q608 -12 597 -8T574 5Q534 41 487 82T389 166T286 247T182 319L193
424Q204 423 230 419T295 415Q347 415 385 428T448 461T485 507T497 556Q497 592 473 615T409 651T318 663Q295 663 278 662T244 659T203 653Z" />
<glyph unicode="S" horiz-adv-x="624" d="M545 713Q553 708 558 699T564 673Q564 653 556 636T534 608T504 598Q495 598 484 603T455 617Q425 632 394 641T317 650Q280 650 254 640T214 613T199 575Q199 548 218 529T271 492T347 453Q425 416 475 381T550 304T575
203Q575 160 556 120T502 49T417 0T307 -19Q262 -19 218 -10T138 14T80 44Q50 68 50 94Q50 111 59 128T82 156T108 168Q116 168 126 164T150 151Q179 135 216 121T306 107Q345 107 373 119T417 150T433 193Q433 221 415 245T361 291T270 335Q230 352 192 372T123
418T74 481T56 568Q56 629 89 675T183 748T324 774Q386 774 445 758T545 713Z" />
<glyph unicode="T" horiz-adv-x="678" d="M86 635Q59 636 45 651T31 706Q31 738 45 753T85 769Q116 768 160 767T251 765T335 764Q410 764 484 765T628 770Q652 771 665 756T678 708Q678 669 665 653T623 637Q557 634 485 632T338 630Q273 630 209 631T86 635ZM269
697Q269 707 277 714T297 726T321 733T341 736Q349 736 360 734T383 726T403 714T411 697Q411 524 405 357T386 29Q385 11 374 1T347 -15T315 -20Q299 -20 283 -15T256 2T246 33Q258 186 263 355T269 697Z" />
<glyph unicode="U" horiz-adv-x="768" d="M101 717Q106 741 122 754T174 768Q211 768 230 752T246 709Q243 696 240 666T234 595T229 513T227 433Q227 320 240 251T289 151T388 119Q425 119 456 134T510 186T546 287T559 451Q559 527 553 594T543 723Q541 747
556 761T607 776Q639 777 655 767T677 741T685 706Q688 677 690 649T695 590T698 519T699 427Q699 338 683 260T631 121T534 26T385 -8Q306 -8 251 14T161 78T109 176T87 299Q83 338 82 390T81 499T87 613T101 717Z" />
<glyph unicode="V" horiz-adv-x="708" d="M36 697Q28 720 37 736T66 761T110 770Q134 770 148 762T170 733Q197 665 219 603T261 480T299 355T335 216Q372 319 408 408T484 581T567 751Q577 770 591 779T626 788Q649 788 668 778T696 752T695 715Q648 623 602
526T515 336T439 163T383 27Q377 9 358 -6T313 -21Q284 -21 266 -7T243 32Q222 123 201 204T155 365T101 525T36 697Z" />
<glyph unicode="W" horiz-adv-x="1042" d="M38 700Q32 726 50 746T110 767Q135 767 153 756T176 723Q188 669 198 623T218 533T238 446T260 353T285 246Q303 309 320 362T353 462T388 554T426 645T469 743Q478 763 491 771T530 780Q565 780 583 766T608 709Q620
643 633 587T663 476T698 363T738 235Q756 300 771 354T802 456T832 549T864 642T900 745Q908 769 923 779T962 790Q994 790 1011 779T1033 750T1031 718Q1015 677 995 621T954 501T911 372T871 244T837 128T811 38Q803 7 783 -6T738 -19Q705 -19 688 -7T664 32Q654
69 640 115T610 212T577 320T545 434T516 551Q487 482 460 407T406 242T346 35Q339 8 316 -3T269 -14Q245 -14 227 -3T203 34L38 700Z" />
<glyph unicode="X" horiz-adv-x="663" d="M79 708Q70 724 74 741T96 771T150 784Q174 784 190 774T220 740L597 63Q611 39 605 22T580 -5T535 -15Q502 -15 487 -5T462 22L79 708ZM141 23Q127 5 112 -1T81 -8Q58 -8 38 5T12 39T21 80L517 744Q530 761 543 769T577
778Q603 778 623 765T651 733T645 696L141 23Z" />
<glyph unicode="Y" horiz-adv-x="644" d="M41 701Q32 719 39 736T66 766T110 778Q136 778 150 770T171 746Q184 722 202 689T239 621T275 554T305 500T321 472Q359 531 391 579T453 670T515 756Q525 768 535 774T563 780Q592 780 611 765T635 729T627 688Q587
634 547 579T467 466T383 340Q384 262 375 186T358 40Q356 16 338 2T281 -12Q247 -13 231 4T217 45Q224 115 233 185T242 333Q194 434 142 522T41 701Z" />
<glyph unicode="Z" horiz-adv-x="643" d="M133 646Q109 648 95 665T82 713Q86 748 101 761T135 774Q241 767 351 768T561 778Q572 779 583 771T601 749T606 714T588 668Q544 599 502 534T417 402T327 266T227 117Q255 118 277 118T321 119T372 120Q419 120 462
119T548 115Q568 115 581 99T593 46Q591 16 578 3T542 -10Q490 -8 440 -7T334 -6Q273 -6 211 -8T87 -13Q62 -13 46 0T28 36T40 80Q86 146 120 196T183 288T236 368T288 446T345 535T416 646Q362 643 317 642T227 642T133 646Z" />
<glyph unicode="[" horiz-adv-x="477" d="M108 822Q110 849 126 859T161 870Q189 870 210 860T230 822Q226 766 222 691T216 529T211 354T207 178T204 17T201 -117Q201 -141 179 -151T130 -162Q111 -162 95 -152T79 -117Q80 -59 81 16T84 178T88 353T93 529T100
690T108 822ZM176 762Q154 762 143 779T132 817Q132 837 143 853T176 870Q223 870 278 869T386 870Q407 871 419 854T432 815Q432 791 419 777T386 762Q334 760 279 761T176 762ZM147 -163Q123 -164 110 -147T96 -110Q95 -88 109 -74T149 -55Q163 -53 189 -53T247
-52T305 -53T349 -54Q377 -55 390 -69T404 -110Q404 -131 392 -149T357 -166Q323 -164 298 -163T250 -161T203 -160T147 -163Z" />
<glyph unicode="\" horiz-adv-x="466" d="M160 806Q178 755 201 685T250 535T300 370T349 204T393 52T427 -72Q435 -103 424 -121T388 -145Q365 -151 342 -143T311 -103Q297 -49 277 22T234 175T186 339T136 502T89 649T47 767Q36 798 45 818T78 845Q106 855 127
847T160 806Z" />
<glyph unicode="]" horiz-adv-x="473" d="M289 820Q290 848 307 859T346 870Q362 870 377 866T403 850T412 820Q411 768 409 694T403 533T395 355T387 178T381 17T378 -110Q377 -137 358 -149T314 -161Q292 -161 273 -147T254 -110L289 820ZM111 -162Q80 -161
68 -144T56 -106Q56 -85 68 -69T111 -53Q138 -55 171 -54T238 -52T302 -47Q331 -44 345 -62T359 -102Q359 -114 355 -124T342 -141Q335 -147 325 -150T302 -156Q273 -158 239 -160T171 -162T111 -162ZM140 756Q112 755 98 772T84 809Q84 830 98 847T144 867Q173
869 216 869T321 863Q352 860 372 848T392 809Q392 788 377 770T334 754Q295 757 262 758T200 759T140 756Z" />
<glyph unicode="^" horiz-adv-x="650" d="M578 394Q578 379 569 366T544 346T515 338Q503 338 492 345T473 365Q426 436 392 487T329 577Q313 556 293 528T252 470T210 412T173 360Q164 349 155 343T135 337Q123 337 110 344T87 363T78 387Q78 399 83 410T100
437Q132 483 166 529T228 613T272 676Q285 694 298 703T329 713Q347 713 358 706T378 685Q410 641 453 583T552 447Q567 426 572 415T578 394Z" />
<glyph unicode="_" horiz-adv-x="514" d="M421 -36Q442 -34 453 -49T465 -89Q465 -112 454 -129T421 -148Q355 -154 287 -157T153 -160Q131 -160 110 -160T69 -159Q47 -158 36 -142T24 -102Q24 -77 35 -62T66 -46Q149 -46 241 -44T421 -36Z" />
<glyph unicode="`" horiz-adv-x="503" d="M336 639Q319 622 302 624T272 638Q252 655 229 678T187 726T157 770Q146 791 146 808T169 845Q191 864 215 864T250 841Q260 820 283 782T338 706Q350 693 351 674T336 639Z" />
<glyph unicode="a" horiz-adv-x="657" d="M41 234Q41 294 59 350T110 452T191 523T296 549Q332 549 362 538T417 503Q422 525 433 537T470 550Q500 550 522 535T544 493Q543 465 536 419T522 327Q520 313 517 290T511 244T507 206Q507 190 508 165T516 122T537
103Q546 103 553 108T567 124Q575 133 583 137T603 141Q615 141 626 133T644 112T646 80Q643 61 624 41T576 6T517 -9Q488 -9 465 3T427 38T405 90Q377 49 337 24T245 -2Q180 -2 135 29T65 113T41 234ZM183 240Q183 202 191 174T217 129T263 112Q286 112 303 122T333
151T354 195Q363 219 369 245T380 300T388 356T392 408Q375 423 354 431T311 440Q281 440 258 424T217 381T192 317T183 240Z" />
<glyph unicode="b" horiz-adv-x="591" d="M99 775Q101 805 117 820T175 835Q209 835 226 822T242 775Q239 742 236 707T231 633T227 553T223 465Q237 486 257 504T303 535T363 547Q424 547 465 515T527 425T548 292Q548 209 519 141T437 32T310 -9Q275 -9 243
1T186 27Q180 9 164 3T123 -4Q96 -4 79 6T62 35Q62 43 62 55T64 73Q54 81 50 92T46 118Q46 130 51 141T69 159Q75 270 79 371T87 571T99 775ZM204 131Q223 116 243 109T287 102Q319 102 346 120T390 178T406 282Q406 321 398 353T372 405T323 424Q300 424 281 408T246
368T221 317T211 268Q210 244 209 221T207 175T204 131Z" />
<glyph unicode="c" horiz-adv-x="541" d="M273 -4Q213 -4 170 20T97 84T54 172T39 270Q39 326 58 376T113 466T198 528T306 551Q344 551 379 541T444 509T496 448Q500 441 502 434T504 420Q504 404 494 392T469 373T441 366Q428 366 419 373T399 394Q382 420 358
430T310 440Q286 440 263 429T222 395T192 340T180 267Q180 234 191 198T225 136T284 111Q324 111 355 134T413 187Q421 195 428 199T445 203Q459 203 473 194T497 172T507 143Q507 136 505 127T494 108Q450 57 391 27T273 -4Z" />
<glyph unicode="d" horiz-adv-x="609" d="M425 781Q427 810 445 821T490 833Q526 833 546 821T563 777Q551 598 543 410T526 39Q526 12 504 0T454 -12Q425 -12 408 0T392 32Q392 43 393 53T395 75T397 103Q377 65 350 40T291 3T225 -10Q176 -10 141 12T84 71T52
151T41 234Q41 293 59 349T112 451T192 523T296 550Q324 550 352 543T408 520Q411 566 413 611T419 699T425 781ZM184 237Q184 205 192 175T215 127T254 108Q280 108 302 127T343 174T372 235T385 293Q386 298 388 302T395 311L400 407Q379 424 358 431T316 438Q285
438 255 416T204 348T184 237Z" />
<glyph unicode="e" horiz-adv-x="539" d="M286 -2Q222 -2 175 20T98 80T52 165T37 260Q37 312 57 363T115 456T202 524T313 550Q364 550 400 533T455 484T474 410Q474 365 454 329T396 268Q349 236 295 222T179 204Q188 181 203 160T241 125T297 111Q333 111 363
129T416 173Q426 184 434 187T450 191Q463 191 475 183T497 162T509 135Q511 123 506 112T494 93Q457 53 404 26T286 -2ZM173 304Q205 306 228 309T280 325Q307 336 327 357T347 407Q347 418 342 427T327 443T300 449Q276 449 255 435T216 399T188 352T173 304Z"
/>
<glyph unicode="f" horiz-adv-x="461" d="M193 -20Q157 -20 142 -6T126 37Q126 78 126 110T128 177T131 261Q132 287 133 325T137 423T150 571Q155 619 164 658T186 728T217 779Q237 801 270 814T348 827Q377 827 407 819T463 797T505 762Q517 747 517 732Q517
719 510 705T491 681T466 671Q450 671 425 691Q407 706 390 713T356 720Q340 720 328 711T305 674T290 592Q284 531 281 487T275 411T272 352T270 300Q268 245 267 205T265 126T263 38Q262 11 247 -4T193 -20ZM59 422Q47 422 37 431T21 455T15 482Q15 504 24 512T46
526Q67 535 97 540T166 547T251 547Q273 547 304 547T363 546T407 546Q430 546 443 533T456 495Q456 463 442 449T408 434Q398 434 376 434T333 435T301 436Q270 436 235 435T167 432T104 427Q97 426 82 424T59 422Z" />
<glyph unicode="g" horiz-adv-x="597" d="M38 242Q38 304 59 360T117 459T204 527T311 552Q339 552 365 546T413 526Q419 542 431 546T464 551Q501 551 517 543T532 514V480Q539 472 542 463T545 437Q545 407 531 390V367Q531 338 531 308T532 236Q532 182 529
123T521 9Q513 -79 483 -143T403 -243T288 -279Q260 -279 226 -270T156 -243T86 -198Q74 -187 68 -177T62 -155Q62 -142 70 -127T91 -101T117 -90Q127 -90 138 -95T160 -107Q179 -120 199 -132T239 -152T281 -160Q309 -160 328 -143T360 -98T379 -36Q385 -6 388
13T394 47T400 83Q374 38 336 17T251 -4Q188 -4 140 29T65 119T38 242ZM277 109Q307 109 327 128T359 182T380 265Q382 279 383 301T386 348T388 391T389 415Q374 429 355 435T322 441Q292 441 267 426T222 382T192 318T181 242Q181 202 193 172T228 125T277 109Z"
/>
<glyph unicode="h" horiz-adv-x="604" d="M85 772Q86 800 103 811T153 822Q186 822 201 808T216 773Q216 753 216 732T215 678T215 592T213 455Q233 484 257 504T312 536T376 547Q431 547 463 524T510 466T530 391T536 320Q538 243 534 194T529 110Q529 87 531
68T534 33Q535 14 518 1T465 -12Q432 -12 418 0T400 39Q398 59 398 90T400 156T402 226T404 285Q404 362 393 392T347 422Q322 422 297 406T251 361T217 290Q214 226 212 164T208 50Q207 23 189 10T138 -3Q105 -3 89 10T71 42Q68 66 67 92T67 143Q68 183 72 220T84
298Q83 401 83 473T82 595T82 677T83 732T85 772Z" />
<glyph unicode="i" horiz-adv-x="298" d="M91 495Q91 513 101 525T127 543T159 549Q193 549 211 536T230 496Q230 426 227 372T219 267T212 162T207 36Q206 11 188 -2T138 -15Q108 -15 93 -6T72 18T67 48Q67 57 69 92T75 178T83 287T89 399T91 495ZM84 712Q84
736 94 755T123 787T163 799Q202 799 222 786T249 754T256 722Q256 685 231 662T166 638Q130 638 107 657T84 712Z" />
<glyph unicode="j" horiz-adv-x="321" d="M112 501Q116 531 134 541T185 552Q215 552 230 545T250 527T254 507Q254 497 253 482T249 440T246 369T243 254Q242 190 241 131T234 15T218 -102Q209 -150 187 -186T135 -243T67 -264Q30 -264 -10 -242T-81 -182Q-91
-170 -93 -162T-96 -145Q-96 -129 -85 -115T-59 -91T-32 -81Q-21 -81 -13 -87T5 -104Q19 -122 30 -133T49 -144Q56 -144 64 -125T81 -63T95 54T101 236Q101 307 102 376T112 501ZM110 722Q110 765 135 784T198 804Q233 804 253 782T274 730Q274 701 258 683T220
655T176 645Q145 645 128 669T110 722Z" />
<glyph unicode="k" horiz-adv-x="648" d="M105 776Q107 799 123 810T179 822Q217 822 228 806T239 765Q239 741 233 691T220 557T207 349Q211 352 228 365T270 398T324 442T381 488T433 530Q446 541 457 546T482 551Q500 551 512 544T532 525T543 503T547 482Q547
472 544 463T529 444Q515 433 496 419T453 387T407 351T363 318T324 289Q338 269 355 242T390 189Q404 168 417 152T444 127T471 118Q486 118 500 132T529 162Q537 172 546 178T567 184Q583 184 597 176T619 154T628 125Q628 109 620 95T598 67Q581 50 556 33T503
4T446 -8Q408 -8 379 8T326 51T279 111Q254 151 238 181T204 236Q203 183 201 134T198 40Q197 12 181 1T134 -10Q97 -10 79 1T62 40Q68 222 78 410T105 776Z" />
<glyph unicode="l" horiz-adv-x="300" d="M111 771Q113 798 130 810T184 822Q212 822 226 814T245 792T249 762Q247 734 241 675T227 509T214 236Q213 183 211 134T208 43Q207 13 191 2T139 -10Q103 -10 86 2T69 46Q72 135 76 227T85 411T96 593T111 771Z" />
<glyph unicode="m" horiz-adv-x="926" d="M94 512Q98 531 116 541T157 552Q183 552 199 539T216 507Q216 497 214 484T208 447Q231 481 256 504T311 538T375 550Q402 550 429 540T478 508T514 445Q536 478 563 502T622 540T692 554Q745 554 778 532T830 473T856
389T863 290Q863 257 861 230T856 176T850 119T842 50Q839 21 819 8T776 -5Q735 -5 721 9T707 47Q707 59 710 82T717 135T725 204T728 285Q728 359 713 393T661 428Q642 428 623 416T585 384T554 339T534 288Q534 269 533 255T532 229T530 202Q529 173 527 145T524
92T522 42Q521 13 505 1T452 -11Q418 -11 401 1T385 45Q386 84 389 124T395 208T398 297Q398 367 386 397T344 427Q322 427 299 412T254 369T216 308Q214 258 212 208T208 116T204 42Q203 13 187 1T139 -11Q102 -11 84 1T66 45Q69 105 71 172T76 309Q78 361 82
412T94 512Z" />
<glyph unicode="n" horiz-adv-x="611" d="M83 517Q87 540 104 549T153 559Q183 559 198 545T214 515Q214 508 212 494T209 463T206 429Q221 459 242 487T296 532T376 550Q465 550 509 487T553 320Q553 268 546 221T532 129T525 39Q525 18 507 3T453 -12Q418 -12
402 3T386 42Q386 89 394 129T409 212T417 305Q417 352 408 378T383 415T345 426Q319 426 298 408T260 362T231 302T211 241Q213 186 213 133T210 36Q209 16 192 2T139 -13Q107 -13 91 -1T70 30T65 71Q65 106 68 145T79 221Q78 277 77 321T76 401T77 465T83 517Z"
/>
<glyph unicode="o" horiz-adv-x="577" d="M303 551Q326 551 355 546T409 532T450 510Q497 473 519 414T541 287Q541 232 526 180T482 86T408 20T305 -5Q240 -5 190 17T106 77T55 166T38 271Q38 324 54 374T104 464T186 527T303 551ZM179 277Q179 235 192 197T232
134T299 109Q327 109 346 124T378 165T395 221T401 280Q401 339 385 375T341 431Q329 434 319 435T298 437Q267 437 244 424T207 388T186 337T179 277Z" />
<glyph unicode="p" horiz-adv-x="618" d="M125 -284Q89 -284 69 -272T51 -228Q55 -170 57 -118T63 -13T68 94T74 210T80 342T88 499Q89 531 112 543T163 556Q192 556 205 542T219 508Q219 494 219 479T217 441Q250 496 294 523T387 550Q434 550 469 529T529 471T565
391T578 302Q578 241 560 185T510 83T433 12T333 -14Q300 -14 267 -3T205 29Q202 -42 200 -106T193 -232Q192 -259 174 -271T125 -284ZM317 96Q341 96 362 110T399 151T425 213T434 294Q434 322 429 346T415 389T391 417T358 427Q337 427 316 413T276 374T242 322T217
264Q216 233 215 204T211 142Q234 121 263 109T317 96Z" />
<glyph unicode="q" horiz-adv-x="604" d="M429 519Q433 536 450 544T492 553Q534 553 547 540T561 506Q561 480 553 447T540 388L533 306Q521 165 517 24T510 -251Q510 -277 492 -290T438 -303Q406 -303 389 -287T373 -246Q374 -221 375 -182T379 -97T383 -8T386
70Q361 36 325 16T242 -5Q180 -5 135 28T66 116T42 235Q42 300 61 357T116 457T201 524T309 549Q344 549 372 538T426 506L429 519ZM186 240Q186 195 198 166T228 124T265 110Q301 110 326 129T366 183T388 262Q393 302 395 327T400 370T403 402Q387 420 366 428T322
437Q283 437 253 412T204 343T186 240Z" />
<glyph unicode="r" horiz-adv-x="498" d="M83 492Q84 522 102 535T160 549Q191 549 206 537T222 504Q222 498 222 489T222 469T219 444Q245 494 282 521T367 549Q386 549 411 544T465 522Q477 515 486 500T492 457Q488 428 472 413T435 398Q425 398 417 401T399
409Q389 414 377 419T347 424Q295 424 263 374T213 248Q212 214 212 185T210 130T209 81T208 39Q208 20 197 9T171 -8T144 -13Q109 -13 92 0T70 34T64 81Q64 101 66 131T70 191T76 241L83 492Z" />
<glyph unicode="s" horiz-adv-x="470" d="M424 485Q432 477 436 468T440 447Q440 434 432 420T410 397T383 387Q370 387 361 392T345 404Q332 418 310 431T258 445Q235 445 218 434T200 403Q200 380 220 366T287 327Q325 308 356 286T406 233T425 155Q425 111
403 74T339 15T240 -8Q185 -8 131 10T39 62Q31 69 26 77T21 99Q21 122 37 142T73 162Q80 162 85 160T98 153Q130 130 162 115T229 99Q257 99 271 110T286 138Q286 165 263 183T201 220Q148 245 117 270T73 325T59 389Q59 435 85 471T156 528T256 549Q303 549 350
533T424 485Z" />
<glyph unicode="t" horiz-adv-x="455" d="M120 640Q123 662 137 674T182 686Q203 686 221 681T251 665T259 634Q252 577 247 521T238 406T236 285Q237 217 242 180T256 129T272 115Q281 115 293 124T316 146T334 166Q340 173 348 177T366 182Q380 182 394 175T417
155T427 125Q427 118 423 105T401 72Q376 46 347 28T289 1T235 -8Q180 -8 151 23T109 114Q100 158 98 200T95 288Q95 349 97 405T105 519T120 640ZM70 427Q51 426 39 440T26 480Q26 505 38 518T70 533Q96 535 131 536T206 538T288 539T372 540Q389 540 402 527T417
484Q417 460 403 447T372 434Q330 434 293 434T221 433T149 431T70 427Z" />
<glyph unicode="u" horiz-adv-x="602" d="M233 -12Q187 -12 154 8T99 65T68 147T58 243Q58 314 66 377T86 502Q89 521 106 534T158 548Q193 548 209 531T223 488Q219 458 212 427T200 355T194 258Q195 219 201 186T222 132T261 112Q287 112 308 130T346 176T375
236T396 296Q395 353 395 405T397 501Q399 522 416 535T467 549Q496 549 511 541T533 518T539 485Q539 471 539 451T538 408T534 361T526 314Q527 223 526 157T521 33Q520 10 502 -1T450 -12Q415 -12 402 2T389 32Q389 42 391 52T394 76T396 107Q385 87 371 66T338
27T294 -1T233 -12Z" />
<glyph unicode="v" horiz-adv-x="546" d="M34 466Q30 480 29 486T27 498Q27 516 45 532T92 548Q121 548 136 538T158 508Q171 465 184 425T210 343T238 257T268 160Q288 214 304 258T335 341T368 422T409 511Q417 528 429 537T460 546Q476 546 493 539T523 521T535
493Q535 486 533 476T521 449Q508 425 489 381T446 283T400 178T360 84T334 22Q328 5 309 -4T263 -14Q233 -14 213 -2T183 38Q168 89 150 142T112 251T73 360T34 466Z" />
<glyph unicode="w" horiz-adv-x="819" d="M578 -15Q558 -15 540 -7T515 24Q503 63 491 99T467 171T441 246T415 329Q380 248 359 191T323 94T298 25Q291 8 278 0T250 -10T223 -12Q199 -12 183 -1T163 32Q149 109 125 183T76 333T34 485Q33 493 32 497T31 509Q31
523 49 537T99 551Q125 550 139 541T159 514Q169 472 179 436T199 363T220 285T244 194Q268 254 287 303T323 397T357 491Q356 514 367 528T396 549T433 556Q456 556 472 547T493 520Q501 493 506 469T519 414Q527 384 534 358T548 307T564 255T582 196Q598 259
614 311T649 413T688 521Q694 539 707 547T739 555Q772 555 789 541T807 504Q807 498 806 494T802 483Q775 406 748 333T697 187T652 33Q647 13 630 -1T578 -15Z" />
<glyph unicode="x" horiz-adv-x="547" d="M80 -16Q59 -16 41 -8T13 13T2 39Q2 46 5 52T14 66Q76 138 141 214T272 369T404 525Q414 537 422 542T442 549Q468 551 487 542T516 520T526 496Q526 486 521 476T509 460Q407 345 314 232T127 8Q116 -6 103 -11T80 -16ZM431
-8Q417 -7 407 0T389 18Q363 53 337 86T284 152T231 216T178 280T126 346T75 413T26 483Q20 494 20 504Q20 518 28 528T49 543T75 551T99 553Q123 553 134 546T151 529Q187 475 232 417T325 299T420 182T506 73Q512 66 516 58T521 42Q521 28 508 17T474 -2T431
-8Z" />
<glyph unicode="y" horiz-adv-x="580" d="M84 505Q89 529 103 537T147 546Q156 546 168 543T191 533T210 516T218 491Q218 473 212 447T200 381T193 280Q193 228 200 190T221 132T259 111Q281 111 301 126T340 167T370 218V263Q370 310 372 355T380 440T396 505Q404
527 419 539T457 551Q487 551 502 542T521 515T526 475Q526 414 520 347T495 217Q496 196 496 174T498 130T499 86Q499 15 490 -52T455 -173T385 -258T268 -290Q196 -290 141 -260T58 -184Q53 -174 52 -167T50 -154Q50 -137 61 -123T87 -101T116 -92Q130 -92 140
-99T160 -120Q180 -148 208 -161T264 -174Q303 -174 324 -149T356 -69T371 75Q347 38 316 12T240 -14Q188 -14 153 9T97 73T67 166T58 275Q58 314 62 356T72 436T84 505Z" />
<glyph unicode="z" horiz-adv-x="529" d="M87 430Q58 430 46 446T34 490Q35 515 50 528T90 542Q175 542 233 542T329 542T392 542T437 544Q464 546 477 532T491 497Q491 481 483 467T466 440Q425 382 387 328T314 225T244 131Q283 128 317 126T385 122T456 119Q476
119 488 105T500 65Q500 34 485 19T442 4Q404 4 359 7T263 15T157 23Q143 5 122 -5T77 -13Q54 -11 40 3T25 40Q25 63 39 81T75 118Q93 142 112 167T151 219T190 273T227 327T263 380T297 429L87 430Z" />
<glyph unicode="{" horiz-adv-x="432" d="M308 886Q338 886 352 872T366 830Q366 806 350 793T306 778Q262 775 240 756T218 707Q218 684 229 659T254 605T279 546T290 482Q290 459 281 437T254 397T208 366Q248 356 269 332T291 272Q291 235 281 201T259 134T236
66T226 -9Q226 -32 235 -50T267 -69Q275 -69 285 -66T310 -57Q322 -50 332 -53T350 -66T361 -86T365 -109Q365 -122 359 -132T343 -150Q325 -165 302 -172T254 -179Q208 -179 176 -158T126 -100T109 -20Q109 25 119 67T141 146T164 211T174 257Q174 283 159 294T102
305Q80 305 68 319T55 356Q55 383 68 397T104 413Q138 415 155 428T172 478Q172 498 162 522T137 576T112 637T101 704Q101 766 130 806T207 867T308 886Z" />
<glyph unicode="|" horiz-adv-x="322" d="M120 817Q123 846 138 860T181 874Q208 874 226 860T243 817Q238 761 234 687T227 527T220 353T216 179T213 19T212 -113Q212 -140 196 -154T153 -168Q125 -168 108 -154T90 -113Q90 -56 91 18T93 178T98 352T104 526T112
686T120 817Z" />
<glyph unicode="}" horiz-adv-x="422" d="M103 -178Q77 -178 64 -165T50 -124Q50 -100 65 -88T104 -74Q153 -69 175 -49T198 0Q198 32 183 66T153 137T138 212Q138 238 146 261T172 304T220 338Q178 350 158 376T137 440Q137 473 148 505T174 572T200 641T212
716Q212 743 203 760T174 777Q167 777 156 775T131 768Q112 759 93 774T73 822Q73 833 78 841T93 858Q112 872 136 879T182 886Q228 886 261 865T311 807T329 727Q329 682 318 639T292 559T266 492T254 446Q254 421 271 410T332 399Q352 399 362 385T373 347Q373
322 362 307T329 290Q293 289 275 275T256 225Q256 200 271 166T300 90T315 3Q315 -43 297 -77T247 -134T179 -168T103 -178Z" />
<glyph unicode="~" horiz-adv-x="650" d="M453 210Q407 210 373 222T312 251T262 279T215 292Q192 292 185 279T177 240Q178 222 165 212T129 202Q104 202 91 211T77 242Q72 314 102 361T201 408Q242 408 273 396T329 367T379 338T432 326Q457 326 469 342T482
391Q484 418 519 418Q544 418 561 405T577 370Q574 296 542 253T453 210Z" />
<glyph unicode="&#xa0;" horiz-adv-x="323" />
<glyph unicode="&#xa1;" horiz-adv-x="298" d="M142 -272Q119 -272 100 -261T82 -222Q84 -170 86 -105T89 27T90 156T88 261Q88 285 107 295T150 306Q172 306 190 295T212 256Q212 249 212 219T212 143T211 45T209 -58T207 -153T205 -222Q204 -249 184 -260T142
-272ZM156 389Q131 390 114 402T87 434T78 473Q78 502 99 525T159 548Q194 549 214 524T234 467Q234 447 223 429T194 400T156 389Z" />
<glyph unicode="&#xa2;" horiz-adv-x="570" d="M514 603Q525 593 528 584T532 566Q532 553 524 540T503 518T477 509Q466 509 458 513T436 527Q419 540 392 547T334 554Q309 554 282 544T233 513T196 461T182 386Q182 339 201 306T251 256T314 238Q357 238 387
252T434 287Q458 318 480 318Q505 318 523 301T542 259Q542 242 528 224Q508 199 477 178T404 143T307 130Q253 130 206 147T124 197T69 279T49 391Q49 448 70 497T130 583T220 642T332 663Q393 663 439 646T514 603ZM337 724Q341 745 355 755T391 762Q414 760
425 748T433 715Q427 675 417 616T392 487T363 341T332 192T304 55Q300 34 286 25T250 17Q228 20 216 32T208 64Q221 127 236 200T266 349T296 495T320 625T337 724Z" />
<glyph unicode="&#xa3;" horiz-adv-x="708" d="M91 -31Q64 -31 48 -18T31 21Q31 47 49 74T99 124T168 154Q178 178 180 201T184 252Q184 286 177 323T159 398T141 476T133 551Q133 619 166 668T254 745T375 772Q415 772 456 761T536 728T602 675Q609 668 611 660T614
643Q614 627 604 612T578 588T548 578Q537 578 528 584T512 595Q474 627 439 639T366 652Q336 652 313 642T276 609T263 551Q263 529 270 498T286 431T303 356T310 276Q310 236 300 195T261 120L263 173Q290 161 319 144T381 115T447 102Q480 102 500 111T534 139T563
185Q572 199 583 205T607 211Q622 211 636 204T659 185T669 159Q669 146 665 133T654 107Q621 46 569 15T456 -17Q418 -17 383 -9T317 13T261 40T216 64Q190 22 156 -4T91 -31ZM470 318Q427 316 373 315T264 313T162 316T85 320Q64 324 55 336T47 371Q50 393 67
407T108 420Q131 419 166 418T244 416T332 415T418 415T494 418Q513 417 523 403T532 366Q529 344 511 332T470 318Z" />
<glyph unicode="&#xa4;" horiz-adv-x="664" d="M319 117Q258 117 210 146T133 227T105 341Q105 384 124 424T177 496T254 547T343 566Q390 566 431 548T504 497T554 424T573 337Q573 276 540 226T450 147T319 117ZM328 217Q366 217 396 231T444 273T462 337Q462
365 452 389T424 430T386 457T340 467Q302 467 274 451T231 406T216 341Q216 304 230 276T269 233T328 217ZM597 92Q575 70 553 67T513 80Q504 90 487 108T452 145T421 178L507 263Q520 250 538 231T573 194T599 167Q618 148 616 128T597 92ZM492 409L407 495Q420
509 439 526T476 561T503 588Q522 606 542 605T578 586Q601 564 604 542T590 501Q580 492 562 475T525 440T492 409ZM164 390Q152 403 134 422T98 459T69 487Q50 504 51 524T71 564Q94 586 116 587T155 573Q167 563 184 545T219 508T250 475L164 390ZM99 68Q77
91 76 113T89 152Q100 164 118 181T155 216T187 247L273 161Q260 148 241 130T204 95T176 66Q159 47 138 48T99 68Z" />
<glyph unicode="&#xa5;" horiz-adv-x="620" d="M62 666Q55 678 50 690T45 712Q46 736 66 753T115 771Q131 771 142 766T165 739Q184 705 205 670T247 600T284 536T313 484Q339 432 350 392T366 314Q368 288 368 252T369 177T367 102T363 39Q362 12 343 1T299 -11Q273
-11 254 0T236 39Q237 61 238 98T240 177T241 256T241 313Q240 340 229 367T209 414Q208 414 197 434T167 486T129 552T91 617T62 666ZM359 354Q353 344 339 338T314 332Q299 332 284 339T259 361T249 394Q249 405 256 418T272 444T289 467Q311 498 337 534T392
609T445 681T487 739Q500 757 511 763T535 769Q554 769 569 760T594 737T604 706Q604 694 601 685T591 666Q581 652 560 623T510 557T453 482T399 410T359 354ZM109 328Q90 330 80 341T70 374Q70 395 80 409T109 422Q134 421 170 420T249 418T337 417T426 419T505
423Q524 424 534 411T545 376Q545 354 534 342T505 329Q459 326 405 325T295 323T191 324T109 328ZM505 257Q525 258 534 246T544 211Q544 190 535 177T505 162Q477 161 428 160T322 159T214 160T128 164Q106 166 97 178T87 213Q87 235 99 247T133 257Q164 255
211 254T311 253T415 254T505 257Z" />
<glyph unicode="&#xa6;" horiz-adv-x="323" d="M105 240Q109 269 126 280T169 291Q193 291 212 280T227 240Q215 132 212 40T209 -118Q209 -142 190 -155T147 -168Q120 -168 104 -155T87 -118Q87 -52 89 40T105 240ZM120 821Q122 846 138 860T182 874Q210 874
227 860T242 821Q235 710 232 626T229 476Q229 452 214 439T170 425Q142 425 125 438T107 476Q107 542 110 626T120 821Z" />
<glyph unicode="&#xa7;" horiz-adv-x="617" d="M307 -111Q269 -111 235 -100T181 -69Q171 -58 166 -49T161 -28Q161 -13 170 2T194 28T223 39Q233 39 242 36T262 25Q273 18 285 15T305 11Q316 11 329 21T342 52Q342 76 324 98T280 143T227 188Q194 217 167 247T122
314T105 402Q105 442 123 479T182 538Q171 558 166 578T161 615Q161 662 183 700T242 762T322 786Q364 786 392 774T441 739Q451 729 455 720T459 701Q459 683 450 667T426 641T396 630Q385 630 377 636T357 651Q352 655 342 659T322 663Q311 663 303 658T290 643T286
624Q286 599 305 577T354 533T412 488Q447 461 478 430T530 360T551 267Q551 218 527 176T452 118Q472 77 472 41Q472 1 448 -33T386 -89T307 -111ZM389 211Q399 211 406 216T418 231T423 249Q426 278 416 301T388 343T347 379Q326 395 303 411T257 446Q246 441
240 432T232 409Q230 381 246 353T290 303Q311 288 338 265T389 211Z" />
<glyph unicode="&#xa8;" horiz-adv-x="503" d="M162 640Q130 640 105 661T80 716Q80 742 92 761T122 791T160 802Q189 802 213 782T238 722Q238 700 228 681T200 651T162 640ZM373 635Q344 635 321 658T298 713Q298 733 307 753T333 786T374 800Q408 800 425 785T447
752T453 720Q453 698 442 679T413 647T373 635Z" />
<glyph unicode="&#xa9;" horiz-adv-x="922" d="M471 -19Q399 -19 327 9T196 89T102 211T66 366Q66 444 96 516T180 645T308 737T467 771Q545 771 616 741T744 658T832 536T865 389Q865 311 835 239T751 108T625 15T471 -19ZM471 84Q532 84 584 107T675 172T735
269T757 386Q757 448 732 499T666 588T574 647T470 668Q405 668 351 644T258 579T197 483T175 367Q175 302 199 250T266 161T362 104T471 84ZM477 197Q420 197 377 221T308 287T283 375Q283 413 300 448T346 511T411 555T487 572Q501 572 515 570T548 560Q567 553
574 540T582 511Q582 494 571 478T539 462Q535 462 530 463T521 466Q514 468 506 470T490 472Q462 472 438 460T400 426T386 378Q386 355 397 337T430 308T477 297Q505 297 526 307T562 332Q568 339 576 343T591 347Q611 347 624 333T638 296Q638 283 629 270T605
245Q580 222 546 210T477 197Z" />
<glyph unicode="&#xaa;" horiz-adv-x="528" d="M50 646Q50 707 74 761T144 849T250 883Q277 883 301 874T346 845Q350 864 358 874T389 884Q414 884 432 872T449 840Q448 819 443 784T432 715Q430 704 428 687T423 652T420 623Q420 610 421 593T427 562T443 549Q450
549 455 553T465 565Q472 571 478 574T493 578Q508 578 520 564T528 527Q526 513 512 497T475 470T427 459Q392 459 368 481T337 537Q316 505 283 485T211 464Q161 464 125 488T70 553T50 646ZM159 648Q159 608 175 583T225 557Q243 557 257 564T283 586T302 618Q311
643 316 668T325 719T330 770Q316 782 297 788T261 795Q238 795 219 784T187 752T167 706T159 648Z" />
<glyph unicode="&#xab;" d="M490 17Q471 17 456 31T426 66Q419 77 400 100T360 150T319 200T292 233Q274 253 266 268T257 298Q257 315 269 331T302 371Q329 399 368 443T462 562Q469 570 479 575T498 580Q520 580 540 564T560 522Q560 515 557 508T548 492Q515
446 475 397T393 296Q429 252 466 204T543 106Q549 99 552 91T556 75Q556 53 538 35T490 17ZM242 48Q228 48 216 56T195 76Q169 112 143 145T94 209T54 265Q49 273 40 288T30 318Q30 332 38 346T62 378Q79 398 100 421T143 467T181 508T207 538Q215 549 224 553T245
558Q263 558 277 549T300 526T309 496Q309 485 304 477T292 460Q260 423 225 388T158 317Q191 272 226 228T294 138Q299 131 302 124T306 109Q306 85 286 67T242 48Z" />
<glyph unicode="&#xac;" horiz-adv-x="650" d="M569 186Q571 161 555 146T509 131Q483 131 468 144T448 184Q446 202 446 228T449 280T451 323Q421 323 377 323T286 322T197 320T128 318Q103 317 91 331T78 373Q78 401 90 417T128 434Q154 435 199 436T295 437T396
437T478 438T521 437Q547 437 560 424T574 386Q574 369 572 334T568 259T569 186Z" />
<glyph unicode="&#xad;" horiz-adv-x="0" />
<glyph unicode="&#xae;" horiz-adv-x="816" d="M66 623Q66 691 94 750T171 856T286 928T426 954Q529 954 607 910T729 785T773 597Q773 529 749 472T679 372T568 306T420 282Q350 282 286 304T173 368T95 475T66 623ZM140 623Q140 542 177 481T278 386T421 351Q503
351 565 381T662 467T696 601Q697 684 666 748T575 848T428 885Q346 885 281 850T178 756T140 623ZM307 449Q285 449 273 457T261 488Q261 561 264 628T273 754Q275 772 288 779T312 787Q332 788 358 789T409 789Q458 789 496 780T557 749T579 692Q579 668 567
647T531 611T475 591Q510 573 534 557T581 522Q587 516 590 511T594 498Q594 480 577 466T534 452Q526 452 514 458T488 476Q474 489 453 506T406 542T356 571Q355 556 355 535T354 488Q354 466 342 458T307 449ZM358 629Q363 629 377 629T409 629Q425 629 442
636T471 654T483 681Q483 703 463 710T416 718Q406 718 390 718T365 716Q363 695 361 675T358 629Z" />
<glyph unicode="&#xaf;" horiz-adv-x="503" d="M146 658Q124 657 112 674T99 717Q99 738 112 753T146 770Q164 771 197 771T267 771T338 769T390 765Q412 764 423 747T435 709Q435 684 424 668T390 653Q372 655 339 656T268 658T197 659T146 658Z" />
<glyph unicode="&#xb0;" horiz-adv-x="439" d="M238 789Q290 789 332 764T398 698T423 606Q423 556 397 516T323 453T216 429Q165 429 126 453T63 517T40 609Q40 658 66 699T137 764T238 789ZM236 692Q209 692 190 681T160 652T149 609Q149 584 158 566T185 537T225
527Q251 527 271 536T303 564T315 606Q315 631 305 650T277 680T236 692Z" />
<glyph unicode="&#xb1;" horiz-adv-x="650" d="M382 209Q381 186 366 175T323 163Q295 163 278 174T261 209Q261 228 261 260T263 332T264 410T265 482T264 534Q263 557 279 568T324 580Q351 580 367 569T384 534Q385 518 385 487T385 417T384 338T383 264T382
209ZM129 313Q106 313 94 327T82 369Q82 397 94 412T129 428Q155 428 200 428T296 428T396 426T477 425T519 424Q542 424 554 410T566 368Q566 341 554 326T519 311Q513 311 481 311T402 311T302 312T204 313T129 313ZM128 -8Q105 -8 93 6T81 45Q81 73 93 90T128
107Q161 107 212 107T320 108T430 110T520 113Q543 115 555 99T568 55Q568 31 556 16T520 -1Q482 -3 430 -4T322 -6T215 -7T128 -8Z" />
<glyph unicode="&#xb2;" horiz-adv-x="527" d="M45 755Q45 798 73 832T146 887T243 908Q307 908 352 889T422 833T447 745Q447 699 424 656T360 574T268 497Q300 500 329 500T385 500T435 494Q455 490 467 479T480 439Q480 405 464 396T427 389Q413 392 389 394T336
397T283 399T241 400Q210 400 181 396T128 389T83 385Q67 385 56 394T45 421Q45 444 56 459T91 487Q135 512 178 542T258 605T315 672T337 737Q337 775 313 796T243 818Q206 818 183 801T148 746Q145 732 134 724T98 716Q71 716 58 727T45 755Z" />
<glyph unicode="&#xb3;" horiz-adv-x="504" d="M252 381Q191 381 137 403T46 461Q35 472 35 487Q35 508 48 524T77 541Q85 541 94 540T115 527Q126 518 144 507T189 487T253 478Q287 478 309 486T343 510T355 546Q355 564 341 583T287 612Q272 604 254 598T216
591T173 593Q157 596 147 609T137 636Q137 654 147 668T175 687Q197 694 221 693T272 681Q301 698 312 715T323 751Q323 770 312 783T280 804T233 811Q204 811 179 802T137 773Q128 763 121 760T105 756Q86 756 70 770T54 807Q54 815 59 825T74 844Q105 870 148
889T246 908Q305 908 347 891T411 842T433 767Q433 736 418 707T378 658Q420 639 443 610T466 535Q466 511 455 485T418 435T352 396T252 381Z" />
<glyph unicode="&#xb4;" horiz-adv-x="503" d="M287 645Q277 630 258 625T218 632Q199 643 198 660T204 691Q216 716 232 744T265 799T294 839Q312 858 331 862T375 850Q398 834 403 811T392 770Q378 754 347 720T287 645Z" />
<glyph unicode="&#xb5;" horiz-adv-x="623" d="M126 -265Q98 -265 80 -251T63 -211Q64 -179 64 -154T63 -106T61 -56Q60 -17 60 31T63 132T69 231Q73 291 82 358T108 489Q116 522 133 533T174 544Q197 544 214 536T239 512T241 469Q231 425 222 377T209 287T204
216Q204 192 207 168T221 128T249 111Q271 111 294 132T338 186T376 257T405 329Q405 363 407 398T414 465T423 515Q428 538 447 549T494 560Q524 560 542 535T560 474Q560 461 558 446T553 415T545 381T535 344Q533 326 532 303T531 261Q531 217 535 177T546 107T555
60Q561 36 552 19T526 -6T491 -15Q467 -15 449 -6T424 30Q418 56 414 82T406 137Q393 107 376 80T337 32T292 -1T242 -13Q221 -13 204 -6T172 15Q174 -9 176 -34T181 -83Q185 -125 188 -158T191 -215Q191 -233 181 -244T157 -260T126 -265Z" />
<glyph unicode="&#xb6;" horiz-adv-x="841" d="M426 -15Q390 -15 374 -3T357 36Q357 62 358 98T359 174T360 253T358 323Q338 316 315 313T273 310Q179 310 128 363T76 509Q76 551 91 595T141 679T231 742T368 766Q391 766 415 764T460 755Q498 747 512 728T521
683Q514 653 510 606T502 508T498 414T497 345Q497 291 498 239T499 137T497 36Q496 10 478 -2T426 -15ZM300 428Q319 428 333 431T364 441Q366 490 370 542T386 643Q377 645 368 645T349 646Q324 646 301 639T259 616T229 576T218 518Q218 486 228 466T257 437T300
428ZM655 -18Q625 -18 608 -9T589 22Q583 127 583 231T586 429T590 594T588 709Q586 736 605 749T657 762Q688 762 707 750T727 716Q727 591 726 500T724 342T723 224T723 128T727 33Q729 7 710 -5T655 -18Z" />
<glyph unicode="&#xb7;" horiz-adv-x="285" d="M134 260Q100 261 76 279T51 330Q51 353 61 374T91 409T143 423Q183 423 201 400T220 347Q220 312 195 286T134 260Z" />
<glyph unicode="&#xb8;" horiz-adv-x="253" d="M-7 -258Q-29 -258 -54 -253T-100 -236Q-112 -230 -115 -220T-114 -196Q-110 -182 -101 -173T-75 -169Q-66 -172 -51 -175T-21 -179Q-1 -179 7 -171T16 -149Q16 -131 3 -125T-30 -123Q-43 -127 -53 -124T-68 -113Q-72
-105 -71 -95T-64 -71L-34 0H41L8 -78L-21 -63Q23 -53 54 -62T101 -94T117 -152Q117 -198 84 -228T-7 -258Z" />
<glyph unicode="&#xb9;" horiz-adv-x="347" d="M91 650Q88 649 84 648T71 647Q59 647 48 656T31 680T24 708Q24 719 27 727T47 744Q78 760 112 785T178 839T226 890Q235 900 244 904T271 908Q292 908 304 901T316 879Q316 867 309 839Q292 769 284 693T274 548T276
433Q278 409 264 399T220 389Q190 389 180 403T169 443Q169 520 171 582T180 703T199 823L244 771Q225 752 199 729T144 685T91 650Z" />
<glyph unicode="&#xba;" horiz-adv-x="476" d="M242 464Q186 464 143 489T75 560T51 664Q51 723 74 773T144 854T256 886Q315 886 356 860T421 791T444 693Q444 634 422 582T354 497T242 464ZM245 560Q277 560 296 579T325 628T334 687Q334 734 314 761T252 788Q220
788 200 771T170 728T160 671Q160 638 170 613T199 574T245 560Z" />
<glyph unicode="&#xbb;" horiz-adv-x="589" d="M114 9Q80 9 63 28T45 68Q45 76 51 86T65 109Q99 157 139 207T216 313Q189 359 157 399T92 490Q87 498 84 506T80 522Q80 544 99 561T145 579Q157 579 169 572T193 549Q202 538 221 511T263 452T305 392T332 350Q337
342 339 332T342 313Q342 300 338 288T320 256Q299 223 269 184T210 107T158 37Q150 24 139 17T114 9ZM357 30Q328 30 308 46T287 87Q287 95 290 102T299 118Q324 156 346 185T391 242T436 306Q408 350 384 387T331 468Q326 475 323 483T319 499Q319 523 338 540T384
557Q396 557 407 550T427 528Q452 488 470 460T506 408T544 354Q553 341 557 330T561 311Q561 300 557 289T544 265Q507 209 468 160T400 59Q392 46 381 38T357 30Z" />
<glyph unicode="&#xbc;" horiz-adv-x="1148" d="M725 806Q740 830 759 834T798 824Q817 811 818 794T804 754Q772 710 734 656T654 538T567 407T477 267T387 125T300 -17Q286 -40 267 -44T227 -37Q189 -14 217 32Q266 111 315 188T412 340T505 483T591 612T665
721T725 806ZM104 528Q101 527 97 526T84 525Q72 525 62 534T45 558T38 586Q38 597 41 605T61 622Q92 638 126 663T191 717T240 768Q248 778 258 782T285 786Q305 786 317 779T330 757Q330 745 323 717Q306 647 298 571T288 426T289 311Q291 287 277 277T233 267Q203
267 193 281T182 321Q182 398 184 460T193 581T212 701L258 649Q239 630 213 607T158 563T104 528ZM756 486Q764 507 778 515T813 523Q843 523 856 514T869 492Q869 485 867 477T861 458Q839 391 820 335T777 218Q824 217 879 216T987 214T1079 211Q1096 210 1104
198T1112 161Q1112 136 1101 125T1068 114Q1065 114 1041 114T980 115T901 117T816 120T739 122T683 124Q669 125 658 134T647 157Q647 164 648 172T655 194Q657 199 665 222T685 281T710 355T736 428T756 486ZM923 368Q925 389 938 398T978 408Q1007 408 1020
398T1032 365Q1026 309 1023 269T1017 193T1014 121T1013 36Q1013 12 1000 2T958 -9Q930 -9 918 0T906 34Q906 86 908 145T914 262T923 368Z" />
<glyph unicode="&#xbd;" horiz-adv-x="1128" d="M725 806Q740 830 759 834T798 824Q817 811 818 794T804 754Q772 710 734 656T654 538T567 407T477 267T387 125T300 -17Q286 -40 267 -44T227 -37Q189 -14 217 32Q266 111 315 188T412 340T505 483T591 612T665
721T725 806ZM104 528Q101 527 97 526T84 525Q72 525 62 534T45 558T38 586Q38 597 41 605T61 622Q92 638 126 663T191 717T240 768Q248 778 258 782T285 786Q305 786 317 779T330 757Q330 745 323 717Q306 647 298 571T288 426T289 311Q291 287 277 277T233 267Q203
267 193 281T182 321Q182 398 184 460T193 581T212 701L258 649Q239 630 213 607T158 563T104 528ZM652 364Q652 407 680 441T753 496T849 517Q913 517 958 498T1029 442T1054 354Q1054 308 1030 265T966 183T874 106Q907 109 936 109T991 109T1041 103Q1062 99
1074 88T1086 48Q1086 14 1071 5T1033 -2Q1019 1 995 3T943 6T890 8T847 9Q816 9 787 5T734 -2T690 -6Q673 -6 663 3T652 30Q652 53 663 68T697 96Q741 121 784 151T864 214T922 281T944 346Q944 384 919 405T850 427Q813 427 789 410T755 355Q752 341 741 333T704
325Q677 325 665 336T652 364Z" />
<glyph unicode="&#xbe;" horiz-adv-x="1232" d="M851 806Q866 830 885 834T924 824Q943 811 944 794T930 754Q899 710 861 656T780 538T693 407T603 267T513 125T426 -17Q412 -40 394 -44T353 -37Q315 -14 344 32Q392 111 441 188T539 340T632 483T717 612T791
721T851 806ZM254 259Q193 259 139 281T48 339Q37 350 37 365Q37 386 50 402T80 419Q88 419 97 418T117 405Q128 396 146 385T192 365T255 356Q289 356 311 364T345 388T357 424Q357 442 344 461T289 490Q274 482 256 476T218 469T176 471Q160 474 150 487T140
514Q140 532 149 546T177 565Q200 572 223 571T274 559Q303 576 314 593T325 629Q325 648 314 661T282 682T236 689Q207 689 182 680T139 651Q131 641 124 638T107 634Q89 634 73 648T57 685Q57 693 62 703T77 722Q108 748 151 767T249 786Q308 786 349 769T413
720T436 645Q436 614 421 585T381 536Q423 517 446 488T469 413Q469 389 458 363T421 313T355 274T254 259ZM835 485Q843 506 857 514T892 523Q922 523 935 514T948 491Q948 484 946 476T940 457Q918 391 899 335T856 217Q903 217 958 216T1066 214T1158 210Q1175
209 1183 197T1191 161Q1191 135 1180 124T1147 113Q1144 113 1120 114T1059 115T980 117T895 119T818 122T762 124Q748 125 737 134T726 157Q726 164 727 172T734 194Q736 198 744 222T764 281T789 354T815 428T835 485ZM1002 368Q1004 388 1017 397T1057 407Q1086
407 1099 398T1111 365Q1105 309 1102 268T1096 192T1093 121T1092 35Q1092 11 1079 1T1037 -9Q1009 -9 997 0T985 33Q985 86 987 145T993 262T1002 368Z" />
<glyph unicode="&#xbf;" horiz-adv-x="523" d="M253 -274Q184 -274 132 -245T52 -164T23 -44Q23 25 51 80T129 168T243 206L248 270Q250 298 268 309T308 320Q329 320 347 309T363 270L355 155Q353 127 335 120T286 110Q246 107 215 94T166 49T148 -41Q148 -72
159 -100T197 -145T266 -163Q308 -163 337 -150T390 -113Q406 -99 422 -99Q442 -99 457 -113T472 -152Q472 -162 469 -172T456 -192Q420 -234 365 -254T253 -274ZM306 385Q291 385 274 395T244 422T231 462Q231 482 241 502T271 537T324 551Q341 551 357 541T385
516T396 481Q396 461 384 439T352 401T306 385Z" />
<glyph unicode="&#xc0;" horiz-adv-x="780" d="M156 34Q148 8 129 -3T73 -15Q41 -15 26 -1T10 32Q10 46 14 61T26 95Q60 182 96 265T169 427T243 584T317 735Q331 763 351 776T399 789Q432 789 456 775T489 738Q493 728 508 687T545 583T593 450T645 307T696 177T738
80Q743 70 748 57T753 36Q753 14 733 -2T681 -19Q660 -19 642 -13T612 14Q580 83 551 165T494 332T443 491T397 621Q348 514 305 413T225 216T156 34ZM206 209Q191 208 175 228T159 274Q159 294 171 306T200 326T232 336Q256 342 291 345T371 348T467 344Q479 343
502 344T550 347T598 351T631 355Q656 358 672 343T688 302Q688 277 672 262T629 237T575 225T526 221Q469 221 417 221T313 219T206 209ZM420 838Q397 851 371 869T322 908T285 946Q271 965 269 982T286 1022Q305 1044 329 1047T367 1031Q382 1012 410 980T475
915Q489 904 493 886T484 849Q469 830 452 830T420 838Z" />
<glyph unicode="&#xc1;" horiz-adv-x="780" d="M156 34Q148 8 129 -3T73 -15Q41 -15 26 -1T10 32Q10 46 14 61T26 95Q60 182 96 265T169 427T243 584T317 735Q331 763 351 776T399 789Q432 789 456 775T489 738Q493 728 508 687T545 583T593 450T645 307T696 177T738
80Q743 70 748 57T753 36Q753 14 733 -2T681 -19Q660 -19 642 -13T612 14Q580 83 551 165T494 332T443 491T397 621Q348 514 305 413T225 216T156 34ZM206 209Q191 208 175 228T159 274Q159 294 171 306T200 326T232 336Q256 342 291 345T371 348T467 344Q479 343
502 344T550 347T598 351T631 355Q656 358 672 343T688 302Q688 277 672 262T629 237T575 225T526 221Q469 221 417 221T313 219T206 209ZM366 829Q348 829 331 842T314 874Q314 883 318 891T328 906Q344 927 366 951T410 998T447 1031Q457 1039 467 1043T486 1047Q501
1047 515 1037T539 1012T548 981Q548 958 529 944Q512 932 473 905T399 843Q384 829 366 829Z" />
<glyph unicode="&#xc2;" horiz-adv-x="780" d="M156 34Q148 8 129 -3T73 -15Q41 -15 26 -1T10 32Q10 46 14 61T26 95Q60 182 96 265T169 427T243 584T317 735Q331 763 351 776T399 789Q432 789 456 775T489 738Q493 728 508 687T545 583T593 450T645 307T696 177T738
80Q743 70 748 57T753 36Q753 14 733 -2T681 -19Q660 -19 642 -13T612 14Q580 83 551 165T494 332T443 491T397 621Q348 514 305 413T225 216T156 34ZM206 209Q191 208 175 228T159 274Q159 294 171 306T200 326T232 336Q256 342 291 345T371 348T467 344Q479 343
502 344T550 347T598 351T631 355Q656 358 672 343T688 302Q688 277 672 262T629 237T575 225T526 221Q469 221 417 221T313 219T206 209ZM314 839Q301 825 284 820T246 830Q228 843 227 859T235 891Q250 913 271 935T315 976T354 1008Q372 1021 387 1028T419 1035Q438
1035 449 1027T471 1006Q492 982 517 957T577 902Q590 891 591 872T576 835Q561 819 546 820T513 831Q488 848 459 872T408 918Q392 907 376 895T344 869T314 839Z" />
<glyph unicode="&#xc3;" horiz-adv-x="780" d="M156 34Q148 8 129 -3T73 -15Q41 -15 26 -1T10 32Q10 46 14 61T26 95Q60 182 96 265T169 427T243 584T317 735Q331 763 351 776T399 789Q432 789 456 775T489 738Q493 728 508 687T545 583T593 450T645 307T696 177T738
80Q743 70 748 57T753 36Q753 14 733 -2T681 -19Q660 -19 642 -13T612 14Q580 83 551 165T494 332T443 491T397 621Q348 514 305 413T225 216T156 34ZM206 209Q191 208 175 228T159 274Q159 294 171 306T200 326T232 336Q256 342 291 345T371 348T467 344Q479 343
502 344T550 347T598 351T631 355Q656 358 672 343T688 302Q688 277 672 262T629 237T575 225T526 221Q469 221 417 221T313 219T206 209ZM495 849Q461 849 438 855T399 871T368 887T338 894Q314 894 314 860Q314 848 301 841T272 834T243 841T230 869Q230 929
257 966T335 1003Q362 1003 381 996T416 980T447 964T482 957Q497 957 505 967T519 998Q522 1012 535 1015T563 1014T589 1000T598 975Q590 913 561 881T495 849Z" />
<glyph unicode="&#xc4;" horiz-adv-x="780" d="M156 34Q148 8 129 -3T73 -15Q41 -15 26 -1T10 32Q10 46 14 61T26 95Q60 182 96 265T169 427T243 584T317 735Q331 763 351 776T399 789Q432 789 456 775T489 738Q493 728 508 687T545 583T593 450T645 307T696 177T738
80Q743 70 748 57T753 36Q753 14 733 -2T681 -19Q660 -19 642 -13T612 14Q580 83 551 165T494 332T443 491T397 621Q348 514 305 413T225 216T156 34ZM206 209Q191 208 175 228T159 274Q159 294 171 306T200 326T232 336Q256 342 291 345T371 348T467 344Q479 343
502 344T550 347T598 351T631 355Q656 358 672 343T688 302Q688 277 672 262T629 237T575 225T526 221Q469 221 417 221T313 219T206 209ZM303 842Q271 842 246 863T221 918Q221 944 233 963T263 993T301 1004Q330 1004 354 984T379 924Q379 902 369 883T341 853T303
842ZM514 837Q485 837 462 860T439 915Q439 935 448 955T474 988T515 1002Q549 1002 566 987T588 954T594 922Q594 900 583 881T554 849T514 837Z" />
<glyph unicode="&#xc5;" horiz-adv-x="780" d="M156 34Q148 8 129 -3T73 -15Q41 -15 26 -1T10 32Q10 46 14 61T26 95Q60 182 96 265T169 427T243 584T317 735Q331 763 351 776T399 789Q432 789 456 775T489 738Q493 728 508 687T545 583T593 450T645 307T696 177T738
80Q743 70 748 57T753 36Q753 14 733 -2T681 -19Q660 -19 642 -13T612 14Q580 83 551 165T494 332T443 491T397 621Q348 514 305 413T225 216T156 34ZM206 209Q191 208 175 228T159 274Q159 294 171 306T200 326T232 336Q256 342 291 345T371 348T467 344Q479 343
502 344T550 347T598 351T631 355Q656 358 672 343T688 302Q688 277 672 262T629 237T575 225T526 221Q469 221 417 221T313 219T206 209ZM397 813Q334 813 299 850T265 941Q266 973 285 1002T338 1050T414 1070Q457 1070 488 1052T536 1004T553 941Q553 888 513
851T397 813ZM406 895Q427 895 440 907T453 941Q453 960 442 973T411 987Q393 987 380 974T366 941Q366 920 376 908T406 895Z" />
<glyph unicode="&#xc6;" horiz-adv-x="1101" d="M159 23Q145 5 128 -3T88 -12Q69 -12 51 -5T21 15T10 47Q11 60 17 69T33 91Q79 149 130 217T234 356T337 498T432 632T512 747Q528 768 554 780T615 792Q645 792 668 786T696 763Q712 765 741 766T806 767T881 767T955
766T1016 764Q1036 763 1049 746T1062 702Q1062 671 1047 656T1008 643Q996 644 971 645T912 646T842 647T767 648T697 646Q696 625 694 599T691 545T688 494T687 452Q726 458 760 461T826 467T893 470T967 471Q986 471 997 456T1008 411Q1007 378 988 364T941
349Q903 349 862 347T776 341T687 330Q688 311 689 286T691 234T695 179T699 128Q759 130 809 132T907 135T1008 136Q1034 136 1048 120T1062 76Q1062 43 1045 28T1001 13Q986 13 958 13T894 13T823 11T757 9T710 6Q710 -14 691 -24T641 -36Q606 -36 587 -22T564
17Q556 96 551 186T546 372T549 562Q498 489 449 420T351 285T256 153T159 23ZM274 172Q256 172 246 188T235 236Q235 266 246 281T285 297Q331 297 383 297T488 299T586 303Q607 303 616 289T626 242Q626 210 617 194T586 178Q541 176 488 175T380 173T274 172Z"
/>
<glyph unicode="&#xc7;" horiz-adv-x="759" d="M679 692Q685 688 693 678T701 653Q701 634 691 617T668 590T643 580Q631 580 621 586T603 597Q568 620 539 633T482 653T419 659Q354 659 304 626T225 529T197 370Q197 293 220 234T289 140T401 106Q441 106 477
117T546 149T608 200Q616 208 624 213T643 218Q657 218 672 209T698 184T709 150Q709 134 700 119T673 86Q621 33 547 6T395 -22Q291 -22 215 24T96 157T54 367Q54 462 81 538T158 668T274 751T423 780Q466 780 511 771T599 742T679 692ZM381 -258Q359 -258 334
-253T288 -236Q276 -230 273 -220T274 -196Q278 -182 287 -173T313 -169Q322 -172 337 -175T367 -179Q387 -179 395 -171T404 -149Q404 -131 391 -125T358 -123Q345 -127 335 -124T320 -113Q316 -105 317 -95T324 -71L354 0H429L396 -78L367 -63Q411 -53 442 -62T489
-94T505 -152Q505 -198 472 -228T381 -258Z" />
<glyph unicode="&#xc8;" horiz-adv-x="625" d="M131 -15Q120 -15 105 -13T79 0T69 34Q78 142 85 256T100 484T112 708Q114 736 125 750T166 766Q215 770 274 772T398 775T530 777Q558 777 571 765T584 725Q584 686 572 671T532 655Q485 655 448 655T379 653T316
650T249 645Q247 610 245 579T242 516T237 450Q281 456 325 459T409 463T480 462Q497 462 511 449T526 406Q526 369 511 355T480 340Q455 342 416 342T330 338T231 327Q227 270 223 218T215 111Q250 113 288 116T367 121T445 126T516 128Q539 128 551 115T562 72Q561
37 550 22T518 6Q498 6 478 6T437 5Q390 4 337 1T231 -6T131 -15ZM367 838Q344 851 318 869T269 908T232 946Q218 965 216 982T233 1022Q252 1044 276 1047T314 1031Q329 1012 357 980T422 915Q436 904 440 886T431 849Q416 830 399 830T367 838Z" />
<glyph unicode="&#xc9;" horiz-adv-x="625" d="M131 -15Q120 -15 105 -13T79 0T69 34Q78 142 85 256T100 484T112 708Q114 736 125 750T166 766Q215 770 274 772T398 775T530 777Q558 777 571 765T584 725Q584 686 572 671T532 655Q485 655 448 655T379 653T316
650T249 645Q247 610 245 579T242 516T237 450Q281 456 325 459T409 463T480 462Q497 462 511 449T526 406Q526 369 511 355T480 340Q455 342 416 342T330 338T231 327Q227 270 223 218T215 111Q250 113 288 116T367 121T445 126T516 128Q539 128 551 115T562 72Q561
37 550 22T518 6Q498 6 478 6T437 5Q390 4 337 1T231 -6T131 -15ZM313 829Q295 829 278 842T261 874Q261 883 265 891T275 906Q291 927 313 951T357 998T394 1031Q404 1039 414 1043T433 1047Q448 1047 462 1037T486 1012T495 981Q495 958 476 944Q459 932 420
905T346 843Q331 829 313 829Z" />
<glyph unicode="&#xca;" horiz-adv-x="625" d="M131 -15Q120 -15 105 -13T79 0T69 34Q78 142 85 256T100 484T112 708Q114 736 125 750T166 766Q215 770 274 772T398 775T530 777Q558 777 571 765T584 725Q584 686 572 671T532 655Q485 655 448 655T379 653T316
650T249 645Q247 610 245 579T242 516T237 450Q281 456 325 459T409 463T480 462Q497 462 511 449T526 406Q526 369 511 355T480 340Q455 342 416 342T330 338T231 327Q227 270 223 218T215 111Q250 113 288 116T367 121T445 126T516 128Q539 128 551 115T562 72Q561
37 550 22T518 6Q498 6 478 6T437 5Q390 4 337 1T231 -6T131 -15ZM261 839Q248 825 231 820T193 830Q175 843 174 859T182 891Q197 913 218 935T262 976T301 1008Q319 1021 334 1028T366 1035Q385 1035 396 1027T418 1006Q439 982 464 957T524 902Q537 891 538
872T523 835Q508 819 493 820T460 831Q435 848 406 872T355 918Q339 907 323 895T291 869T261 839Z" />
<glyph unicode="&#xcb;" horiz-adv-x="625" d="M131 -15Q120 -15 105 -13T79 0T69 34Q78 142 85 256T100 484T112 708Q114 736 125 750T166 766Q215 770 274 772T398 775T530 777Q558 777 571 765T584 725Q584 686 572 671T532 655Q485 655 448 655T379 653T316
650T249 645Q247 610 245 579T242 516T237 450Q281 456 325 459T409 463T480 462Q497 462 511 449T526 406Q526 369 511 355T480 340Q455 342 416 342T330 338T231 327Q227 270 223 218T215 111Q250 113 288 116T367 121T445 126T516 128Q539 128 551 115T562 72Q561
37 550 22T518 6Q498 6 478 6T437 5Q390 4 337 1T231 -6T131 -15ZM250 842Q218 842 193 863T168 918Q168 944 180 963T210 993T248 1004Q277 1004 301 984T326 924Q326 902 316 883T288 853T250 842ZM461 837Q432 837 409 860T386 915Q386 935 395 955T421 988T462
1002Q496 1002 513 987T535 954T541 922Q541 900 530 881T501 849T461 837Z" />
<glyph unicode="&#xcc;" horiz-adv-x="319" d="M110 721Q111 747 131 758T179 770Q212 770 232 758T251 717Q236 549 227 376T215 33Q214 5 193 -6T141 -17Q113 -17 93 -5T73 38Q77 203 86 376T110 721ZM201 836Q178 849 152 867T103 906T66 944Q52 963 50 980T67
1020Q86 1042 110 1045T148 1029Q163 1010 191 978T256 913Q270 902 274 884T265 847Q250 828 233 828T201 836Z" />
<glyph unicode="&#xcd;" horiz-adv-x="319" d="M110 721Q111 747 131 758T179 770Q212 770 232 758T251 717Q236 549 227 376T215 33Q214 5 193 -6T141 -17Q113 -17 93 -5T73 38Q77 203 86 376T110 721ZM147 827Q129 827 112 840T95 872Q95 881 99 889T109 904Q125
925 147 949T191 996T228 1029Q238 1037 248 1041T267 1045Q282 1045 296 1035T320 1010T329 979Q329 956 310 942Q293 930 254 903T180 841Q165 827 147 827Z" />
<glyph unicode="&#xce;" horiz-adv-x="319" d="M110 721Q111 747 131 758T179 770Q212 770 232 758T251 717Q236 549 227 376T215 33Q214 5 193 -6T141 -17Q113 -17 93 -5T73 38Q77 203 86 376T110 721ZM95 837Q82 823 65 818T27 828Q9 841 8 857T16 889Q31 911
52 933T96 974T135 1006Q153 1019 168 1026T200 1033Q219 1033 230 1025T252 1004Q273 980 298 955T358 900Q371 889 372 870T357 833Q342 817 327 818T294 829Q269 846 240 870T189 916Q173 905 157 893T125 867T95 837Z" />
<glyph unicode="&#xcf;" horiz-adv-x="319" d="M110 721Q111 747 131 758T179 770Q212 770 232 758T251 717Q236 549 227 376T215 33Q214 5 193 -6T141 -17Q113 -17 93 -5T73 38Q77 203 86 376T110 721ZM84 840Q52 840 27 861T2 916Q2 942 14 961T44 991T82 1002Q111
1002 135 982T160 922Q160 900 150 881T122 851T84 840ZM295 835Q266 835 243 858T220 913Q220 933 229 953T255 986T296 1000Q330 1000 347 985T369 952T375 920Q375 898 364 879T335 847T295 835Z" />
<glyph unicode="&#xd0;" horiz-adv-x="817" d="M83 332Q61 332 48 345T35 387Q35 411 49 425T83 440Q132 439 190 439T306 440T413 443Q437 444 448 431T460 389Q460 361 449 349T413 335Q364 333 307 332T191 331T83 332ZM91 29Q96 128 103 231T117 440Q122 506
125 571T130 699Q130 717 139 730T170 748Q189 752 213 755T264 760T315 764T359 765Q461 765 536 735T662 653T738 534T764 394Q764 317 735 243T651 108T515 11T333 -25Q299 -25 268 -20T208 -7Q195 -12 182 -15T152 -19Q128 -19 110 -8T91 29ZM232 111Q241 108
252 106T277 103T304 100T330 99Q382 99 433 118T526 174T593 266T619 397Q619 464 596 511T537 587T458 630T375 644Q355 644 335 643T297 639T262 633Q260 572 258 520T252 420T246 324T239 224T232 111Z" />
<glyph unicode="&#xd1;" horiz-adv-x="789" d="M209 36Q206 14 187 5T134 -5Q107 -5 87 9T70 52Q84 172 93 287T106 514T105 737Q104 764 119 776T169 789Q195 789 213 779T245 742Q254 728 270 701T310 637T362 554T423 458T490 354T560 246Q559 316 560 376T566
491T575 603T587 720Q590 749 606 763T663 778Q702 778 714 764T723 723Q715 643 709 568T698 414T690 244T686 37Q686 17 672 4T622 -10Q592 -10 575 2T540 38Q503 93 474 138T418 223T364 305T307 394T238 501Q239 439 238 381T233 265T223 151T209 36ZM516 849Q482
849 459 855T420 871T389 887T359 894Q335 894 335 860Q335 848 322 841T293 834T264 841T251 869Q251 929 278 966T356 1003Q383 1003 402 996T437 980T468 964T503 957Q518 957 526 967T540 998Q543 1012 556 1015T584 1014T610 1000T619 975Q611 913 582 881T516
849Z" />
<glyph unicode="&#xd2;" horiz-adv-x="809" d="M559 759Q574 752 582 742T590 718Q590 710 583 698T564 673T538 652T508 645Q492 647 474 652T427 658Q372 658 329 633T257 564T212 467T196 355Q196 302 209 256T249 176T313 122T399 103Q459 103 508 136T586
232T615 385Q615 437 607 477T585 545T557 592Q549 603 542 613T534 637Q534 647 542 662T564 692T590 716T612 726Q629 726 641 717T662 695T680 671Q722 612 740 538T758 386Q758 304 733 231T660 102T545 13T396 -20Q322 -20 266 2T169 63T102 149T64 248T52
347Q52 426 78 503T154 644T276 745T438 783Q465 783 498 778T559 759ZM445 842Q422 855 396 873T347 912T310 950Q296 969 294 986T311 1026Q330 1048 354 1051T392 1035Q407 1016 435 984T500 919Q514 908 518 890T509 853Q494 834 477 834T445 842Z" />
<glyph unicode="&#xd3;" horiz-adv-x="809" d="M559 759Q574 752 582 742T590 718Q590 710 583 698T564 673T538 652T508 645Q492 647 474 652T427 658Q372 658 329 633T257 564T212 467T196 355Q196 302 209 256T249 176T313 122T399 103Q459 103 508 136T586
232T615 385Q615 437 607 477T585 545T557 592Q549 603 542 613T534 637Q534 647 542 662T564 692T590 716T612 726Q629 726 641 717T662 695T680 671Q722 612 740 538T758 386Q758 304 733 231T660 102T545 13T396 -20Q322 -20 266 2T169 63T102 149T64 248T52
347Q52 426 78 503T154 644T276 745T438 783Q465 783 498 778T559 759ZM391 833Q373 833 356 846T339 878Q339 887 343 895T353 910Q369 931 391 955T435 1002T472 1035Q482 1043 492 1047T511 1051Q526 1051 540 1041T564 1016T573 985Q573 962 554 948Q537 936
498 909T424 847Q409 833 391 833Z" />
<glyph unicode="&#xd4;" horiz-adv-x="809" d="M559 759Q574 752 582 742T590 718Q590 710 583 698T564 673T538 652T508 645Q492 647 474 652T427 658Q372 658 329 633T257 564T212 467T196 355Q196 302 209 256T249 176T313 122T399 103Q459 103 508 136T586
232T615 385Q615 437 607 477T585 545T557 592Q549 603 542 613T534 637Q534 647 542 662T564 692T590 716T612 726Q629 726 641 717T662 695T680 671Q722 612 740 538T758 386Q758 304 733 231T660 102T545 13T396 -20Q322 -20 266 2T169 63T102 149T64 248T52
347Q52 426 78 503T154 644T276 745T438 783Q465 783 498 778T559 759ZM339 843Q326 829 309 824T271 834Q253 847 252 863T260 895Q275 917 296 939T340 980T379 1012Q397 1025 412 1032T444 1039Q463 1039 474 1031T496 1010Q517 986 542 961T602 906Q615 895
616 876T601 839Q586 823 571 824T538 835Q513 852 484 876T433 922Q417 911 401 899T369 873T339 843Z" />
<glyph unicode="&#xd5;" horiz-adv-x="809" d="M559 759Q574 752 582 742T590 718Q590 710 583 698T564 673T538 652T508 645Q492 647 474 652T427 658Q372 658 329 633T257 564T212 467T196 355Q196 302 209 256T249 176T313 122T399 103Q459 103 508 136T586
232T615 385Q615 437 607 477T585 545T557 592Q549 603 542 613T534 637Q534 647 542 662T564 692T590 716T612 726Q629 726 641 717T662 695T680 671Q722 612 740 538T758 386Q758 304 733 231T660 102T545 13T396 -20Q322 -20 266 2T169 63T102 149T64 248T52
347Q52 426 78 503T154 644T276 745T438 783Q465 783 498 778T559 759ZM520 853Q486 853 463 859T424 875T393 891T363 898Q339 898 339 864Q339 852 326 845T297 838T268 845T255 873Q255 933 282 970T360 1007Q387 1007 406 1000T441 984T472 968T507 961Q522
961 530 971T544 1002Q547 1016 560 1019T588 1018T614 1004T623 979Q615 917 586 885T520 853Z" />
<glyph unicode="&#xd6;" horiz-adv-x="809" d="M559 759Q574 752 582 742T590 718Q590 710 583 698T564 673T538 652T508 645Q492 647 474 652T427 658Q372 658 329 633T257 564T212 467T196 355Q196 302 209 256T249 176T313 122T399 103Q459 103 508 136T586
232T615 385Q615 437 607 477T585 545T557 592Q549 603 542 613T534 637Q534 647 542 662T564 692T590 716T612 726Q629 726 641 717T662 695T680 671Q722 612 740 538T758 386Q758 304 733 231T660 102T545 13T396 -20Q322 -20 266 2T169 63T102 149T64 248T52
347Q52 426 78 503T154 644T276 745T438 783Q465 783 498 778T559 759ZM328 846Q296 846 271 867T246 922Q246 948 258 967T288 997T326 1008Q355 1008 379 988T404 928Q404 906 394 887T366 857T328 846ZM539 841Q510 841 487 864T464 919Q464 939 473 959T499
992T540 1006Q574 1006 591 991T613 958T619 926Q619 904 608 885T579 853T539 841Z" />
<glyph unicode="&#xd7;" horiz-adv-x="650" d="M532 193Q548 177 546 158T526 122Q508 103 487 101T448 116Q417 148 381 185T307 261T233 336T167 402T117 451Q101 467 103 487T124 525Q141 542 161 543T199 530Q217 514 250 482T323 408T404 326T479 249T532
193ZM201 118Q183 101 163 102T127 121Q109 138 107 159T121 195Q139 214 173 247T249 322T332 404T407 477T457 526Q474 543 494 542T530 523Q547 505 549 486T535 450Q520 435 488 403T415 331T332 250T256 173T201 118Z" />
<glyph unicode="&#xd8;" horiz-adv-x="809" d="M559 759Q574 752 582 742T590 718Q590 710 583 698T564 673T538 652T508 645Q492 647 474 652T427 658Q372 658 329 633T257 564T212 467T196 355Q196 302 209 256T249 176T313 122T399 103Q459 103 508 136T586
232T615 385Q615 437 607 477T585 545T557 592Q549 603 542 613T534 637Q534 647 542 662T564 692T590 716T612 726Q629 726 641 717T662 695T680 671Q722 612 740 538T758 386Q758 304 733 231T660 102T545 13T396 -20Q322 -20 266 2T169 63T102 149T64 248T52
347Q52 426 78 503T154 644T276 745T438 783Q465 783 498 778T559 759ZM161 -35Q155 -42 144 -50T116 -58T78 -42Q55 -24 54 -1T68 42Q164 159 260 285T451 539T641 793Q650 805 662 812T690 820T723 806Q736 797 742 783T747 755T736 728Q594 538 451 344T161
-35Z" />
<glyph unicode="&#xd9;" horiz-adv-x="768" d="M101 717Q106 741 122 754T174 768Q211 768 230 752T246 709Q243 696 240 666T234 595T229 513T227 433Q227 320 240 251T289 151T388 119Q425 119 456 134T510 186T546 287T559 451Q559 527 553 594T543 723Q541
747 556 761T607 776Q639 777 655 767T677 741T685 706Q688 677 690 649T695 590T698 519T699 427Q699 338 683 260T631 121T534 26T385 -8Q306 -8 251 14T161 78T109 176T87 299Q83 338 82 390T81 499T87 613T101 717ZM415 835Q392 848 366 866T317 905T280 943Q266
962 264 979T281 1019Q300 1041 324 1044T362 1028Q377 1009 405 977T470 912Q484 901 488 883T479 846Q464 827 447 827T415 835Z" />
<glyph unicode="&#xda;" horiz-adv-x="768" d="M101 717Q106 741 122 754T174 768Q211 768 230 752T246 709Q243 696 240 666T234 595T229 513T227 433Q227 320 240 251T289 151T388 119Q425 119 456 134T510 186T546 287T559 451Q559 527 553 594T543 723Q541
747 556 761T607 776Q639 777 655 767T677 741T685 706Q688 677 690 649T695 590T698 519T699 427Q699 338 683 260T631 121T534 26T385 -8Q306 -8 251 14T161 78T109 176T87 299Q83 338 82 390T81 499T87 613T101 717ZM361 826Q343 826 326 839T309 871Q309 880
313 888T323 903Q339 924 361 948T405 995T442 1028Q452 1036 462 1040T481 1044Q496 1044 510 1034T534 1009T543 978Q543 955 524 941Q507 929 468 902T394 840Q379 826 361 826Z" />
<glyph unicode="&#xdb;" horiz-adv-x="768" d="M101 717Q106 741 122 754T174 768Q211 768 230 752T246 709Q243 696 240 666T234 595T229 513T227 433Q227 320 240 251T289 151T388 119Q425 119 456 134T510 186T546 287T559 451Q559 527 553 594T543 723Q541
747 556 761T607 776Q639 777 655 767T677 741T685 706Q688 677 690 649T695 590T698 519T699 427Q699 338 683 260T631 121T534 26T385 -8Q306 -8 251 14T161 78T109 176T87 299Q83 338 82 390T81 499T87 613T101 717ZM309 836Q296 822 279 817T241 827Q223 840
222 856T230 888Q245 910 266 932T310 973T349 1005Q367 1018 382 1025T414 1032Q433 1032 444 1024T466 1003Q487 979 512 954T572 899Q585 888 586 869T571 832Q556 816 541 817T508 828Q483 845 454 869T403 915Q387 904 371 892T339 866T309 836Z" />
<glyph unicode="&#xdc;" horiz-adv-x="768" d="M101 717Q106 741 122 754T174 768Q211 768 230 752T246 709Q243 696 240 666T234 595T229 513T227 433Q227 320 240 251T289 151T388 119Q425 119 456 134T510 186T546 287T559 451Q559 527 553 594T543 723Q541
747 556 761T607 776Q639 777 655 767T677 741T685 706Q688 677 690 649T695 590T698 519T699 427Q699 338 683 260T631 121T534 26T385 -8Q306 -8 251 14T161 78T109 176T87 299Q83 338 82 390T81 499T87 613T101 717ZM298 839Q266 839 241 860T216 915Q216 941
228 960T258 990T296 1001Q325 1001 349 981T374 921Q374 899 364 880T336 850T298 839ZM509 834Q480 834 457 857T434 912Q434 932 443 952T469 985T510 999Q544 999 561 984T583 951T589 919Q589 897 578 878T549 846T509 834Z" />
<glyph unicode="&#xdd;" horiz-adv-x="644" d="M41 701Q32 719 39 736T66 766T110 778Q136 778 150 770T171 746Q184 722 202 689T239 621T275 554T305 500T321 472Q359 531 391 579T453 670T515 756Q525 768 535 774T563 780Q592 780 611 765T635 729T627 688Q587
634 547 579T467 466T383 340Q384 262 375 186T358 40Q356 16 338 2T281 -12Q247 -13 231 4T217 45Q224 115 233 185T242 333Q194 434 142 522T41 701ZM302 829Q284 829 267 842T250 874Q250 883 254 891T264 906Q280 927 302 951T346 998T383 1031Q393 1039 403
1043T422 1047Q437 1047 451 1037T475 1012T484 981Q484 958 465 944Q448 932 409 905T335 843Q320 829 302 829Z" />
<glyph unicode="&#xde;" horiz-adv-x="625" d="M102 720Q106 743 124 754T166 765Q194 765 216 751T238 707Q238 694 234 682T228 651Q221 591 219 539T217 426Q217 386 218 334T219 227T216 119T205 24Q202 8 191 0T166 -12T138 -16Q120 -16 104 -10T77 8T69
40Q77 110 79 184T81 323T81 432Q81 509 84 581T102 720ZM173 500Q149 495 135 510T120 549Q120 579 133 591T173 610Q193 615 221 618T281 622Q339 622 393 610T491 571T559 500T585 390Q585 323 561 277T495 203T398 163T282 150Q244 150 222 150T189 150T173
150Q157 149 145 166T133 203Q133 231 151 246T200 262Q216 262 235 262T275 262T308 261Q368 261 405 294T443 389Q443 449 406 480T298 511Q270 511 237 509T173 500Z" />
<glyph unicode="&#xdf;" horiz-adv-x="726" d="M216 -174Q222 -198 213 -214T186 -239T146 -247Q117 -247 99 -235T74 -197Q59 -125 52 -54T45 99Q45 158 51 228T68 371T99 512T145 636Q171 689 209 732T302 802T430 828Q485 828 526 811T594 765T636 700T650
626Q650 587 637 555T601 495T546 445T480 400L481 433Q545 426 587 394T651 314T673 212Q673 148 637 95T535 11T377 -16Q350 -15 335 0T320 48Q320 81 336 97T377 111Q426 108 461 123T514 165T533 226Q533 257 516 284T463 327T368 335Q341 331 322 344T303
392Q303 415 311 428T339 450Q432 491 473 537T514 628Q514 651 505 668T477 695T433 705Q408 705 377 692T317 649T264 568Q245 526 231 474T206 363T191 241T186 112Q186 31 193 -38T216 -174Z" />
<glyph unicode="&#xe0;" horiz-adv-x="657" d="M41 234Q41 294 59 350T110 452T191 523T296 549Q332 549 362 538T417 503Q422 525 433 537T470 550Q500 550 522 535T544 493Q543 465 536 419T522 327Q520 313 517 290T511 244T507 206Q507 190 508 165T516 122T537
103Q546 103 553 108T567 124Q575 133 583 137T603 141Q615 141 626 133T644 112T646 80Q643 61 624 41T576 6T517 -9Q488 -9 465 3T427 38T405 90Q377 49 337 24T245 -2Q180 -2 135 29T65 113T41 234ZM183 240Q183 202 191 174T217 129T263 112Q286 112 303 122T333
151T354 195Q363 219 369 245T380 300T388 356T392 408Q375 423 354 431T311 440Q281 440 258 424T217 381T192 317T183 240ZM403 639Q386 622 369 624T339 638Q319 655 296 678T254 726T224 770Q213 791 213 808T236 845Q258 864 282 864T317 841Q327 820 350
782T405 706Q417 693 418 674T403 639Z" />
<glyph unicode="&#xe1;" horiz-adv-x="657" d="M41 234Q41 294 59 350T110 452T191 523T296 549Q332 549 362 538T417 503Q422 525 433 537T470 550Q500 550 522 535T544 493Q543 465 536 419T522 327Q520 313 517 290T511 244T507 206Q507 190 508 165T516 122T537
103Q546 103 553 108T567 124Q575 133 583 137T603 141Q615 141 626 133T644 112T646 80Q643 61 624 41T576 6T517 -9Q488 -9 465 3T427 38T405 90Q377 49 337 24T245 -2Q180 -2 135 29T65 113T41 234ZM183 240Q183 202 191 174T217 129T263 112Q286 112 303 122T333
151T354 195Q363 219 369 245T380 300T388 356T392 408Q375 423 354 431T311 440Q281 440 258 424T217 381T192 317T183 240ZM354 645Q344 630 325 625T285 632Q266 643 265 660T271 691Q283 716 299 744T332 799T361 839Q379 858 398 862T442 850Q465 834 470
811T459 770Q445 754 414 720T354 645Z" />
<glyph unicode="&#xe2;" horiz-adv-x="657" d="M41 234Q41 294 59 350T110 452T191 523T296 549Q332 549 362 538T417 503Q422 525 433 537T470 550Q500 550 522 535T544 493Q543 465 536 419T522 327Q520 313 517 290T511 244T507 206Q507 190 508 165T516 122T537
103Q546 103 553 108T567 124Q575 133 583 137T603 141Q615 141 626 133T644 112T646 80Q643 61 624 41T576 6T517 -9Q488 -9 465 3T427 38T405 90Q377 49 337 24T245 -2Q180 -2 135 29T65 113T41 234ZM183 240Q183 202 191 174T217 129T263 112Q286 112 303 122T333
151T354 195Q363 219 369 245T380 300T388 356T392 408Q375 423 354 431T311 440Q281 440 258 424T217 381T192 317T183 240ZM249 632Q238 617 220 612T181 621Q163 634 162 650T171 683Q185 705 206 732T248 783T284 821Q299 835 312 842T342 849Q361 849 373
842T395 819Q409 797 435 762T491 694Q503 681 504 663T491 628Q475 609 458 611T428 624Q406 642 381 670T335 721Q323 712 308 697T277 665T249 632Z" />
<glyph unicode="&#xe3;" horiz-adv-x="657" d="M41 234Q41 294 59 350T110 452T191 523T296 549Q332 549 362 538T417 503Q422 525 433 537T470 550Q500 550 522 535T544 493Q543 465 536 419T522 327Q520 313 517 290T511 244T507 206Q507 190 508 165T516 122T537
103Q546 103 553 108T567 124Q575 133 583 137T603 141Q615 141 626 133T644 112T646 80Q643 61 624 41T576 6T517 -9Q488 -9 465 3T427 38T405 90Q377 49 337 24T245 -2Q180 -2 135 29T65 113T41 234ZM183 240Q183 202 191 174T217 129T263 112Q286 112 303 122T333
151T354 195Q363 219 369 245T380 300T388 356T392 408Q375 423 354 431T311 440Q281 440 258 424T217 381T192 317T183 240ZM430 646Q396 646 373 652T334 668T303 684T273 691Q249 691 249 657Q249 645 236 638T207 631T178 638T165 666Q165 726 192 763T270
800Q297 800 316 793T351 777T382 761T417 754Q432 754 440 764T454 795Q457 809 470 812T498 811T524 797T533 772Q525 710 496 678T430 646Z" />
<glyph unicode="&#xe4;" horiz-adv-x="657" d="M41 234Q41 294 59 350T110 452T191 523T296 549Q332 549 362 538T417 503Q422 525 433 537T470 550Q500 550 522 535T544 493Q543 465 536 419T522 327Q520 313 517 290T511 244T507 206Q507 190 508 165T516 122T537
103Q546 103 553 108T567 124Q575 133 583 137T603 141Q615 141 626 133T644 112T646 80Q643 61 624 41T576 6T517 -9Q488 -9 465 3T427 38T405 90Q377 49 337 24T245 -2Q180 -2 135 29T65 113T41 234ZM183 240Q183 202 191 174T217 129T263 112Q286 112 303 122T333
151T354 195Q363 219 369 245T380 300T388 356T392 408Q375 423 354 431T311 440Q281 440 258 424T217 381T192 317T183 240ZM229 640Q197 640 172 661T147 716Q147 742 159 761T189 791T227 802Q256 802 280 782T305 722Q305 700 295 681T267 651T229 640ZM440
635Q411 635 388 658T365 713Q365 733 374 753T400 786T441 800Q475 800 492 785T514 752T520 720Q520 698 509 679T480 647T440 635Z" />
<glyph unicode="&#xe5;" horiz-adv-x="657" d="M41 234Q41 294 59 350T110 452T191 523T296 549Q332 549 362 538T417 503Q422 525 433 537T470 550Q500 550 522 535T544 493Q543 465 536 419T522 327Q520 313 517 290T511 244T507 206Q507 190 508 165T516 122T537
103Q546 103 553 108T567 124Q575 133 583 137T603 141Q615 141 626 133T644 112T646 80Q643 61 624 41T576 6T517 -9Q488 -9 465 3T427 38T405 90Q377 49 337 24T245 -2Q180 -2 135 29T65 113T41 234ZM183 240Q183 202 191 174T217 129T263 112Q286 112 303 122T333
151T354 195Q363 219 369 245T380 300T388 356T392 408Q375 423 354 431T311 440Q281 440 258 424T217 381T192 317T183 240ZM318 614Q254 614 219 651T186 742Q187 774 206 803T259 851T334 871Q378 871 409 853T457 805T474 742Q474 689 434 652T318 614ZM326
696Q347 696 360 708T373 742Q373 761 362 774T332 788Q313 788 300 775T286 742Q286 721 297 709T326 696Z" />
<glyph unicode="&#xe6;" horiz-adv-x="833" d="M143 370Q136 358 126 354T106 349Q92 349 78 357T55 377T45 404Q45 415 50 426T65 448Q103 495 150 520T255 546Q329 546 378 505T451 391L429 172Q398 112 356 72T268 11T178 -9Q142 -9 112 6T63 50T45 116Q45
149 60 184T111 249T204 295T348 307Q349 315 349 320T349 328Q349 357 335 381T298 420T248 435Q227 435 207 427T171 405T143 370ZM169 126Q169 111 178 103T202 95Q221 95 245 107T294 145T341 211Q275 216 238 202T185 167T169 126ZM507 298Q552 298 588 312T645
351T667 405Q667 418 661 427T644 440T619 445Q606 445 586 437T544 406T509 345T495 242Q495 197 511 167T552 123T605 108Q637 108 665 120T711 155Q722 168 731 172T750 177Q765 177 778 169T800 148T809 119Q809 100 796 82T767 53Q730 22 687 9T602 -4Q554
-4 512 16T437 74T387 160L394 364Q411 419 447 459T532 523T633 546Q672 546 708 532T768 488T792 412Q792 361 766 322T696 255T602 213T500 198Q482 198 465 199T437 203L450 302Q459 301 474 300T507 298Z" />
<glyph unicode="&#xe7;" horiz-adv-x="541" d="M273 -4Q213 -4 170 20T97 84T54 172T39 270Q39 326 58 376T113 466T198 528T306 551Q344 551 379 541T444 509T496 448Q500 441 502 434T504 420Q504 404 494 392T469 373T441 366Q428 366 419 373T399 394Q382
420 358 430T310 440Q286 440 263 429T222 395T192 340T180 267Q180 234 191 198T225 136T284 111Q324 111 355 134T413 187Q421 195 428 199T445 203Q459 203 473 194T497 172T507 143Q507 136 505 127T494 108Q450 57 391 27T273 -4ZM268 -250Q246 -250 221 -245T175
-228Q163 -222 160 -212T161 -188Q165 -174 174 -165T200 -161Q209 -164 224 -167T254 -171Q274 -171 282 -163T291 -141Q291 -123 278 -117T245 -115Q232 -119 222 -116T207 -105Q203 -97 204 -87T211 -63L241 8H316L283 -70L254 -55Q298 -45 329 -54T376 -86T392
-144Q392 -190 359 -220T268 -250Z" />
<glyph unicode="&#xe8;" horiz-adv-x="539" d="M286 -2Q222 -2 175 20T98 80T52 165T37 260Q37 312 57 363T115 456T202 524T313 550Q364 550 400 533T455 484T474 410Q474 365 454 329T396 268Q349 236 295 222T179 204Q188 181 203 160T241 125T297 111Q333
111 363 129T416 173Q426 184 434 187T450 191Q463 191 475 183T497 162T509 135Q511 123 506 112T494 93Q457 53 404 26T286 -2ZM173 304Q205 306 228 309T280 325Q307 336 327 357T347 407Q347 418 342 427T327 443T300 449Q276 449 255 435T216 399T188 352T173
304ZM370 639Q353 622 336 624T306 638Q286 655 263 678T221 726T191 770Q180 791 180 808T203 845Q225 864 249 864T284 841Q294 820 317 782T372 706Q384 693 385 674T370 639Z" />
<glyph unicode="&#xe9;" horiz-adv-x="539" d="M286 -2Q222 -2 175 20T98 80T52 165T37 260Q37 312 57 363T115 456T202 524T313 550Q364 550 400 533T455 484T474 410Q474 365 454 329T396 268Q349 236 295 222T179 204Q188 181 203 160T241 125T297 111Q333
111 363 129T416 173Q426 184 434 187T450 191Q463 191 475 183T497 162T509 135Q511 123 506 112T494 93Q457 53 404 26T286 -2ZM173 304Q205 306 228 309T280 325Q307 336 327 357T347 407Q347 418 342 427T327 443T300 449Q276 449 255 435T216 399T188 352T173
304ZM321 645Q311 630 292 625T252 632Q233 643 232 660T238 691Q250 716 266 744T299 799T328 839Q346 858 365 862T409 850Q432 834 437 811T426 770Q412 754 381 720T321 645Z" />
<glyph unicode="&#xea;" horiz-adv-x="539" d="M286 -2Q222 -2 175 20T98 80T52 165T37 260Q37 312 57 363T115 456T202 524T313 550Q364 550 400 533T455 484T474 410Q474 365 454 329T396 268Q349 236 295 222T179 204Q188 181 203 160T241 125T297 111Q333
111 363 129T416 173Q426 184 434 187T450 191Q463 191 475 183T497 162T509 135Q511 123 506 112T494 93Q457 53 404 26T286 -2ZM173 304Q205 306 228 309T280 325Q307 336 327 357T347 407Q347 418 342 427T327 443T300 449Q276 449 255 435T216 399T188 352T173
304ZM216 632Q205 617 187 612T148 621Q130 634 129 650T138 683Q152 705 173 732T215 783T251 821Q266 835 279 842T309 849Q328 849 340 842T362 819Q376 797 402 762T458 694Q470 681 471 663T458 628Q442 609 425 611T395 624Q373 642 348 670T302 721Q290
712 275 697T244 665T216 632Z" />
<glyph unicode="&#xeb;" horiz-adv-x="539" d="M286 -2Q222 -2 175 20T98 80T52 165T37 260Q37 312 57 363T115 456T202 524T313 550Q364 550 400 533T455 484T474 410Q474 365 454 329T396 268Q349 236 295 222T179 204Q188 181 203 160T241 125T297 111Q333
111 363 129T416 173Q426 184 434 187T450 191Q463 191 475 183T497 162T509 135Q511 123 506 112T494 93Q457 53 404 26T286 -2ZM173 304Q205 306 228 309T280 325Q307 336 327 357T347 407Q347 418 342 427T327 443T300 449Q276 449 255 435T216 399T188 352T173
304ZM196 640Q164 640 139 661T114 716Q114 742 126 761T156 791T194 802Q223 802 247 782T272 722Q272 700 262 681T234 651T196 640ZM407 635Q378 635 355 658T332 713Q332 733 341 753T367 786T408 800Q442 800 459 785T481 752T487 720Q487 698 476 679T447
647T407 635Z" />
<glyph unicode="&#xec;" horiz-adv-x="290" d="M89 495Q89 513 99 525T125 543T156 549Q190 549 208 536T227 496Q227 426 224 372T217 267T210 162T204 36Q204 11 185 -2T135 -15Q105 -15 90 -7T69 15T64 44Q64 53 66 88T72 175T80 285T86 399T89 495ZM228 639Q211
622 194 624T164 638Q144 655 121 678T79 726T49 770Q38 791 38 808T61 845Q83 864 107 864T142 841Q152 820 175 782T230 706Q242 693 243 674T228 639Z" />
<glyph unicode="&#xed;" horiz-adv-x="290" d="M89 495Q89 513 99 525T125 543T156 549Q190 549 208 536T227 496Q227 426 224 372T217 267T210 162T204 36Q204 11 185 -2T135 -15Q105 -15 90 -7T69 15T64 44Q64 53 66 88T72 175T80 285T86 399T89 495ZM179 645Q169
630 150 625T110 632Q91 643 90 660T96 691Q108 716 124 744T157 799T186 839Q204 858 223 862T267 850Q290 834 295 811T284 770Q270 754 239 720T179 645Z" />
<glyph unicode="&#xee;" horiz-adv-x="290" d="M89 495Q89 513 99 525T125 543T156 549Q190 549 208 536T227 496Q227 426 224 372T217 267T210 162T204 36Q204 11 185 -2T135 -15Q105 -15 90 -7T69 15T64 44Q64 53 66 88T72 175T80 285T86 399T89 495ZM74 632Q63
617 45 612T6 621Q-12 634 -13 650T-4 683Q10 705 31 732T73 783T109 821Q124 835 137 842T167 849Q186 849 198 842T220 819Q234 797 260 762T316 694Q328 681 329 663T316 628Q300 609 283 611T253 624Q231 642 206 670T160 721Q148 712 133 697T102 665T74 632Z"
/>
<glyph unicode="&#xef;" horiz-adv-x="290" d="M89 495Q89 513 99 525T125 543T156 549Q190 549 208 536T227 496Q227 426 224 372T217 267T210 162T204 36Q204 11 185 -2T135 -15Q105 -15 90 -7T69 15T64 44Q64 53 66 88T72 175T80 285T86 399T89 495ZM54 640Q22
640 -3 661T-28 716Q-28 742 -16 761T14 791T52 802Q81 802 105 782T130 722Q130 700 120 681T92 651T54 640ZM265 635Q236 635 213 658T190 713Q190 733 199 753T225 786T266 800Q300 800 317 785T339 752T345 720Q345 698 334 679T305 647T265 635Z" />
<glyph unicode="&#xf0;" horiz-adv-x="653" d="M508 255Q471 284 421 308T320 333Q275 333 245 316T198 268T182 200Q182 167 196 143T235 105T293 92Q323 92 353 102T409 136T451 197T467 288Q467 359 449 417T397 524T315 621T206 718Q199 724 196 732T192 748Q192
763 200 778T221 803T252 813Q261 813 271 810T290 799Q353 753 410 697T511 577T582 441T608 291Q608 225 586 169T521 70T422 4T295 -20Q220 -20 163 6T73 81T40 200Q40 274 78 329T181 414T327 445Q378 445 424 430T511 376L508 255ZM455 783Q469 792 481 792Q495
792 506 784T525 763T532 737Q532 722 518 711L261 510Q248 500 234 500Q220 500 208 509T189 531T182 557Q182 573 195 583Q236 614 281 648T371 717T455 783Z" />
<glyph unicode="&#xf1;" horiz-adv-x="611" d="M83 517Q87 540 104 549T153 559Q183 559 198 545T214 515Q214 508 212 494T209 463T206 429Q221 459 242 487T296 532T376 550Q465 550 509 487T553 320Q553 268 546 221T532 129T525 39Q525 18 507 3T453 -12Q418
-12 402 3T386 42Q386 89 394 129T409 212T417 305Q417 352 408 378T383 415T345 426Q319 426 298 408T260 362T231 302T211 241Q213 186 213 133T210 36Q209 16 192 2T139 -13Q107 -13 91 -1T70 30T65 71Q65 106 68 145T79 221Q78 277 77 321T76 401T77 465T83
517ZM415 646Q381 646 358 652T319 668T288 684T258 691Q234 691 234 657Q234 645 221 638T192 631T163 638T150 666Q150 726 177 763T255 800Q282 800 301 793T336 777T367 761T402 754Q417 754 425 764T439 795Q442 809 455 812T483 811T509 797T518 772Q510
710 481 678T415 646Z" />
<glyph unicode="&#xf2;" horiz-adv-x="577" d="M303 551Q326 551 355 546T409 532T450 510Q497 473 519 414T541 287Q541 232 526 180T482 86T408 20T305 -5Q240 -5 190 17T106 77T55 166T38 271Q38 324 54 374T104 464T186 527T303 551ZM179 277Q179 235 192
197T232 134T299 109Q327 109 346 124T378 165T395 221T401 280Q401 339 385 375T341 431Q329 434 319 435T298 437Q267 437 244 424T207 388T186 337T179 277ZM372 639Q355 622 338 624T308 638Q288 655 265 678T223 726T193 770Q182 791 182 808T205 845Q227
864 251 864T286 841Q296 820 319 782T374 706Q386 693 387 674T372 639Z" />
<glyph unicode="&#xf3;" horiz-adv-x="577" d="M303 551Q326 551 355 546T409 532T450 510Q497 473 519 414T541 287Q541 232 526 180T482 86T408 20T305 -5Q240 -5 190 17T106 77T55 166T38 271Q38 324 54 374T104 464T186 527T303 551ZM179 277Q179 235 192
197T232 134T299 109Q327 109 346 124T378 165T395 221T401 280Q401 339 385 375T341 431Q329 434 319 435T298 437Q267 437 244 424T207 388T186 337T179 277ZM323 645Q313 630 294 625T254 632Q235 643 234 660T240 691Q252 716 268 744T301 799T330 839Q348
858 367 862T411 850Q434 834 439 811T428 770Q414 754 383 720T323 645Z" />
<glyph unicode="&#xf4;" horiz-adv-x="577" d="M303 551Q326 551 355 546T409 532T450 510Q497 473 519 414T541 287Q541 232 526 180T482 86T408 20T305 -5Q240 -5 190 17T106 77T55 166T38 271Q38 324 54 374T104 464T186 527T303 551ZM179 277Q179 235 192
197T232 134T299 109Q327 109 346 124T378 165T395 221T401 280Q401 339 385 375T341 431Q329 434 319 435T298 437Q267 437 244 424T207 388T186 337T179 277ZM218 632Q207 617 189 612T150 621Q132 634 131 650T140 683Q154 705 175 732T217 783T253 821Q268
835 281 842T311 849Q330 849 342 842T364 819Q378 797 404 762T460 694Q472 681 473 663T460 628Q444 609 427 611T397 624Q375 642 350 670T304 721Q292 712 277 697T246 665T218 632Z" />
<glyph unicode="&#xf5;" horiz-adv-x="577" d="M303 551Q326 551 355 546T409 532T450 510Q497 473 519 414T541 287Q541 232 526 180T482 86T408 20T305 -5Q240 -5 190 17T106 77T55 166T38 271Q38 324 54 374T104 464T186 527T303 551ZM179 277Q179 235 192
197T232 134T299 109Q327 109 346 124T378 165T395 221T401 280Q401 339 385 375T341 431Q329 434 319 435T298 437Q267 437 244 424T207 388T186 337T179 277ZM399 646Q365 646 342 652T303 668T272 684T242 691Q218 691 218 657Q218 645 205 638T176 631T147
638T134 666Q134 726 161 763T239 800Q266 800 285 793T320 777T351 761T386 754Q401 754 409 764T423 795Q426 809 439 812T467 811T493 797T502 772Q494 710 465 678T399 646Z" />
<glyph unicode="&#xf6;" horiz-adv-x="577" d="M303 551Q326 551 355 546T409 532T450 510Q497 473 519 414T541 287Q541 232 526 180T482 86T408 20T305 -5Q240 -5 190 17T106 77T55 166T38 271Q38 324 54 374T104 464T186 527T303 551ZM179 277Q179 235 192
197T232 134T299 109Q327 109 346 124T378 165T395 221T401 280Q401 339 385 375T341 431Q329 434 319 435T298 437Q267 437 244 424T207 388T186 337T179 277ZM198 640Q166 640 141 661T116 716Q116 742 128 761T158 791T196 802Q225 802 249 782T274 722Q274
700 264 681T236 651T198 640ZM409 635Q380 635 357 658T334 713Q334 733 343 753T369 786T410 800Q444 800 461 785T483 752T489 720Q489 698 478 679T449 647T409 635Z" />
<glyph unicode="&#xf7;" horiz-adv-x="650" d="M520 263Q479 265 427 265T321 266T217 267T133 266Q109 265 96 280T83 322Q83 348 96 364T133 382Q165 383 212 383T314 383T422 381T520 377Q545 376 557 361T570 320Q570 293 558 278T520 263ZM319 65Q290 65
271 83T251 133Q251 153 260 170T286 197T328 208Q358 208 374 188T391 139Q391 107 371 86T319 65ZM332 436Q313 436 295 444T266 470T255 511Q255 540 276 555T325 571Q358 571 380 552T403 503Q403 474 383 455T332 436Z" />
<glyph unicode="&#xf8;" horiz-adv-x="577" d="M303 551Q326 551 355 546T409 532T450 510Q497 473 519 414T541 287Q541 232 526 180T482 86T408 20T305 -5Q240 -5 190 17T106 77T55 166T38 271Q38 324 54 374T104 464T186 527T303 551ZM179 277Q179 235 192
197T232 134T299 109Q327 109 346 124T378 165T395 221T401 280Q401 339 385 375T341 431Q329 434 319 435T298 437Q267 437 244 424T207 388T186 337T179 277ZM138 -38Q127 -53 106 -57T63 -46Q40 -29 37 -10T49 31Q109 119 176 211T312 395T445 574Q459 592 477
596T519 582Q539 567 545 549T536 512Q470 426 401 332T266 145T138 -38Z" />
<glyph unicode="&#xf9;" horiz-adv-x="602" d="M233 -12Q187 -12 154 8T99 65T68 147T58 243Q58 314 66 377T86 502Q89 521 106 534T158 548Q193 548 209 531T223 488Q219 458 212 427T200 355T194 258Q195 219 201 186T222 132T261 112Q287 112 308 130T346 176T375
236T396 296Q395 353 395 405T397 501Q399 522 416 535T467 549Q496 549 511 541T533 518T539 485Q539 471 539 451T538 408T534 361T526 314Q527 223 526 157T521 33Q520 10 502 -1T450 -12Q415 -12 402 2T389 32Q389 42 391 52T394 76T396 107Q385 87 371 66T338
27T294 -1T233 -12ZM379 649Q362 632 345 634T315 648Q295 665 272 688T230 736T200 780Q189 801 189 818T212 855Q234 874 258 874T293 851Q303 830 326 792T381 716Q393 703 394 684T379 649Z" />
<glyph unicode="&#xfa;" horiz-adv-x="602" d="M233 -12Q187 -12 154 8T99 65T68 147T58 243Q58 314 66 377T86 502Q89 521 106 534T158 548Q193 548 209 531T223 488Q219 458 212 427T200 355T194 258Q195 219 201 186T222 132T261 112Q287 112 308 130T346 176T375
236T396 296Q395 353 395 405T397 501Q399 522 416 535T467 549Q496 549 511 541T533 518T539 485Q539 471 539 451T538 408T534 361T526 314Q527 223 526 157T521 33Q520 10 502 -1T450 -12Q415 -12 402 2T389 32Q389 42 391 52T394 76T396 107Q385 87 371 66T338
27T294 -1T233 -12ZM330 655Q320 640 301 635T261 642Q242 653 241 670T247 701Q259 726 275 754T308 809T337 849Q355 868 374 872T418 860Q441 844 446 821T435 780Q421 764 390 730T330 655Z" />
<glyph unicode="&#xfb;" horiz-adv-x="602" d="M233 -12Q187 -12 154 8T99 65T68 147T58 243Q58 314 66 377T86 502Q89 521 106 534T158 548Q193 548 209 531T223 488Q219 458 212 427T200 355T194 258Q195 219 201 186T222 132T261 112Q287 112 308 130T346 176T375
236T396 296Q395 353 395 405T397 501Q399 522 416 535T467 549Q496 549 511 541T533 518T539 485Q539 471 539 451T538 408T534 361T526 314Q527 223 526 157T521 33Q520 10 502 -1T450 -12Q415 -12 402 2T389 32Q389 42 391 52T394 76T396 107Q385 87 371 66T338
27T294 -1T233 -12ZM225 642Q214 627 196 622T157 631Q139 644 138 660T147 693Q161 715 182 742T224 793T260 831Q275 845 288 852T318 859Q337 859 349 852T371 829Q385 807 411 772T467 704Q479 691 480 673T467 638Q451 619 434 621T404 634Q382 652 357 680T311
731Q299 722 284 707T253 675T225 642Z" />
<glyph unicode="&#xfc;" horiz-adv-x="602" d="M233 -12Q187 -12 154 8T99 65T68 147T58 243Q58 314 66 377T86 502Q89 521 106 534T158 548Q193 548 209 531T223 488Q219 458 212 427T200 355T194 258Q195 219 201 186T222 132T261 112Q287 112 308 130T346 176T375
236T396 296Q395 353 395 405T397 501Q399 522 416 535T467 549Q496 549 511 541T533 518T539 485Q539 471 539 451T538 408T534 361T526 314Q527 223 526 157T521 33Q520 10 502 -1T450 -12Q415 -12 402 2T389 32Q389 42 391 52T394 76T396 107Q385 87 371 66T338
27T294 -1T233 -12ZM205 650Q173 650 148 671T123 726Q123 752 135 771T165 801T203 812Q232 812 256 792T281 732Q281 710 271 691T243 661T205 650ZM416 645Q387 645 364 668T341 723Q341 743 350 763T376 796T417 810Q451 810 468 795T490 762T496 730Q496 708
485 689T456 657T416 645Z" />
<glyph unicode="&#xfd;" horiz-adv-x="580" d="M84 505Q89 529 103 537T147 546Q156 546 168 543T191 533T210 516T218 491Q218 473 212 447T200 381T193 280Q193 228 200 190T221 132T259 111Q281 111 301 126T340 167T370 218V263Q370 310 372 355T380 440T396
505Q404 527 419 539T457 551Q487 551 502 542T521 515T526 475Q526 414 520 347T495 217Q496 196 496 174T498 130T499 86Q499 15 490 -52T455 -173T385 -258T268 -290Q196 -290 141 -260T58 -184Q53 -174 52 -167T50 -154Q50 -137 61 -123T87 -101T116 -92Q130
-92 140 -99T160 -120Q180 -148 208 -161T264 -174Q303 -174 324 -149T356 -69T371 75Q347 38 316 12T240 -14Q188 -14 153 9T97 73T67 166T58 275Q58 314 62 356T72 436T84 505ZM324 634Q314 619 295 614T255 621Q236 632 235 649T241 680Q253 705 269 733T302
788T331 828Q349 847 368 851T412 839Q435 823 440 800T429 759Q415 743 384 709T324 634Z" />
<glyph unicode="&#xfe;" horiz-adv-x="609" d="M125 -284Q88 -284 69 -272T51 -228Q56 -144 61 -49T70 149T79 358T88 568T97 771Q98 804 121 816T172 829Q205 829 220 815T236 781Q236 776 235 753T233 694T230 618T226 535T222 455Q255 501 298 525T385 550Q433
550 468 529T526 471T561 390T573 301Q573 240 556 184T507 83T431 12T332 -14Q299 -14 267 -3T205 29Q201 -42 199 -106T193 -232Q191 -259 173 -271T125 -284ZM312 97Q335 97 355 110T390 148T415 207T425 283Q426 311 423 335T411 378T389 408T358 422Q333 424
307 407T259 361T224 295Q221 265 217 224T211 149Q233 127 260 113T312 97Z" />
<glyph unicode="&#xff;" horiz-adv-x="580" d="M84 505Q89 529 103 537T147 546Q156 546 168 543T191 533T210 516T218 491Q218 473 212 447T200 381T193 280Q193 228 200 190T221 132T259 111Q281 111 301 126T340 167T370 218V263Q370 310 372 355T380 440T396
505Q404 527 419 539T457 551Q487 551 502 542T521 515T526 475Q526 414 520 347T495 217Q496 196 496 174T498 130T499 86Q499 15 490 -52T455 -173T385 -258T268 -290Q196 -290 141 -260T58 -184Q53 -174 52 -167T50 -154Q50 -137 61 -123T87 -101T116 -92Q130
-92 140 -99T160 -120Q180 -148 208 -161T264 -174Q303 -174 324 -149T356 -69T371 75Q347 38 316 12T240 -14Q188 -14 153 9T97 73T67 166T58 275Q58 314 62 356T72 436T84 505ZM199 629Q167 629 142 650T117 705Q117 731 129 750T159 780T197 791Q226 791 250
771T275 711Q275 689 265 670T237 640T199 629ZM410 624Q381 624 358 647T335 702Q335 722 344 742T370 775T411 789Q445 789 462 774T484 741T490 709Q490 687 479 668T450 636T410 624Z" />
<glyph unicode="&#x2013;" horiz-adv-x="527" d="M103 251Q77 249 64 265T51 303Q51 334 65 349T103 367Q154 372 209 374T316 377Q357 378 390 378T439 376Q461 375 473 361T486 323Q486 296 474 278T439 259Q426 260 397 260T330 260Q275 260 217 258T103 251Z" />
<glyph unicode="&#x2014;" horiz-adv-x="1023" d="M98 244Q72 242 59 260T46 301Q46 332 59 345T98 361Q144 364 197 366T306 369T415 371T515 372Q553 373 617 373T763 373T936 376Q958 376 971 360T985 320Q985 293 972 276T936 259Q846 258 765 258T620 257T519
256Q473 256 419 255T309 253T198 249T98 244Z" />
<glyph unicode="&#x2018;" horiz-adv-x="217" d="M171 644Q180 628 176 614T158 589T127 576T94 576T68 596Q40 640 40 681T58 766T110 857Q124 877 142 879T176 871T197 845T192 811Q158 757 154 720T171 644Z" />
<glyph unicode="&#x2019;" horiz-adv-x="217" d="M61 803Q50 824 58 841T85 868T125 876T160 858Q191 820 194 776T178 684T124 590Q110 571 91 569T56 576T34 601T37 632Q75 686 79 726T61 803Z" />
<glyph unicode="&#x201a;" horiz-adv-x="225" d="M37 51Q26 72 34 89T61 116T101 124T136 106Q167 68 170 24T154 -68T100 -162Q86 -181 67 -183T32 -176T10 -151T13 -120Q51 -66 55 -26T37 51Z" />
<glyph unicode="&#x201c;" horiz-adv-x="412" d="M251 594Q230 640 232 680T254 761T307 848Q321 867 339 869T372 861T392 834T387 800Q365 765 355 738T344 686T355 635Q363 613 352 597T320 573T280 570T251 594ZM68 601Q40 645 40 686T58 771T110 862Q124
882 142 884T176 876T197 850T192 816Q158 762 154 725T171 649Q180 633 176 619T158 594T127 581T94 581T68 601Z" />
<glyph unicode="&#x201d;" horiz-adv-x="398" d="M302 583Q288 564 269 562T234 569T212 594T215 625Q254 679 259 721T247 799Q237 820 246 837T274 864T314 872T347 853Q374 816 375 771T357 678T302 583ZM123 599Q110 580 92 578T57 584T34 609T36 641Q68 695
71 730T57 803Q47 825 56 842T84 869T123 877T156 858Q184 820 186 778T171 691T123 599Z" />
<glyph unicode="&#x201e;" horiz-adv-x="406" d="M278 -164Q264 -183 245 -185T210 -178T188 -153T191 -122Q230 -68 235 -26T223 52Q213 73 222 90T250 117T290 125T323 106Q350 69 351 24T333 -69T278 -164ZM99 -148Q86 -167 68 -169T33 -163T10 -138T12 -106Q44
-52 47 -17T33 56Q23 78 32 95T60 122T99 130T132 111Q160 73 162 31T147 -56T99 -148Z" />
<glyph unicode="&#x2022;" horiz-adv-x="483" d="M229 149Q189 149 159 170T112 226T95 299Q95 328 108 355T144 403T194 438T247 451Q261 451 284 443T332 418T373 371T390 299Q390 250 365 217T303 166T229 149Z" />
<glyph unicode="&#x2039;" horiz-adv-x="384" d="M261 2Q245 2 231 14T201 50Q175 92 135 140T56 227Q40 242 35 256T30 282Q30 298 39 313T70 351Q93 376 134 422T230 540Q238 553 249 559T275 565Q291 565 304 557T325 537T334 512Q334 502 330 491T319 470Q285
419 243 374T161 283Q197 245 236 198T304 109Q311 98 318 86T325 61Q325 48 316 34T293 11T261 2Z" />
<glyph unicode="&#x203a;" horiz-adv-x="362" d="M106 7Q90 7 76 15T54 37T45 66Q45 74 47 82T55 97Q80 133 106 167T159 235T210 305Q196 328 180 349T148 392T115 435T82 480Q77 487 75 495T73 510Q73 524 81 537T103 560T132 570Q147 570 158 562T182 538Q192
526 212 499T255 441T297 381T324 339Q334 323 334 306Q334 290 327 276T309 247Q295 230 276 204T234 147T191 88T153 35Q144 22 132 15T106 7Z" />
</font>
</defs>
</svg>
